<?xml version="1.0" standalone="no"?>
<!DOCTYPE svg PUBLIC "-//W3C//DTD SVG 1.1//EN" "http://www.w3.org/Graphics/SVG/1.1/DTD/svg11.dtd" >
<svg xmlns="http://www.w3.org/2000/svg">
<metadata></metadata>
<defs>
<font id="swis721_hv_btheavy" horiz-adv-x="1024" >
<font-face units-per-em="2048" ascent="1556" descent="-492" />
<missing-glyph horiz-adv-x="604" />
<glyph unicode="&#xd;" horiz-adv-x="604" />
<glyph unicode=" "  horiz-adv-x="604" />
<glyph unicode="&#x09;" horiz-adv-x="604" />
<glyph unicode="&#xa0;" horiz-adv-x="604" />
<glyph unicode="!" horiz-adv-x="698" d="M248 477l-84 586v410h368v-410l-86 -586h-198zM166 0v352h369v-352h-369z" />
<glyph unicode="&#x22;" horiz-adv-x="713" d="M416 1438h223v-561h-223v561zM76 1438h219v-561h-219v561z" />
<glyph unicode="#" horiz-adv-x="1575" d="M707 842l-82 -232h245l82 232h-245zM684 1466h250l-139 -393h235l141 393h250l-139 -393h270l-86 -231h-268l-80 -230h277l-84 -231h-275l-141 -393h-250l139 393h-235l-141 -393h-250l139 393h-274l86 231h270l82 230h-283l86 231h279z" />
<glyph unicode="$" horiz-adv-x="1208" d="M545 909v270q-64 -3 -99.5 -36t-35.5 -88q0 -49 30.5 -82.5t104.5 -63.5zM670 228q64 7 101.5 44.5t37.5 94.5q0 59 -33.5 99.5t-105.5 70.5v-309zM545 -231v196q-241 6 -363 123.5t-126 347.5h321q2 -104 41.5 -153.5t126.5 -55.5v353q-239 73 -348 180t-109 268 q0 181 121 289t336 119v116h125v-116q212 -3 329.5 -111t120.5 -303h-319q0 75 -33 114.5t-98 42.5v-315q261 -91 368 -200t107 -281q0 -175 -129 -289t-346 -129v-196h-125z" />
<glyph unicode="%" horiz-adv-x="1909" d="M1280 367q0 -68 48 -115t116 -47q67 0 114.5 47t47.5 115t-47.5 115.5t-114.5 47.5q-69 0 -116.5 -47.5t-47.5 -115.5zM1036 367q0 169 119 288t289 119t288.5 -119t118.5 -288q0 -170 -118.5 -289t-288.5 -119t-289 119t-119 289zM442 -41l844 1493h180l-843 -1493h-181 zM301 1044q0 -67 48 -114t116 -47q67 0 114.5 47t47.5 114q0 68 -47.5 116t-114.5 48q-69 0 -116.5 -47.5t-47.5 -116.5zM57 1044q0 170 119 289t289 119t288.5 -119t118.5 -289q0 -169 -118.5 -288t-288.5 -119t-289 119t-119 288z" />
<glyph unicode="&#x26;" horiz-adv-x="1464" d="M688 971q65 47 95 92t30 96q0 53 -32.5 85t-86.5 32q-57 0 -88 -29.5t-31 -83.5q0 -28 11 -52.5t37 -55.5zM809 326l-227 292q-87 -53 -126.5 -103t-39.5 -107q0 -75 54.5 -128t131.5 -53q49 0 100 24.5t107 74.5zM414 838q-66 83 -98.5 160t-32.5 151q0 153 114 252.5 t291 99.5t283 -91.5t106 -242.5q0 -123 -62 -218.5t-188 -166.5l177 -223q25 41 41 91t24 116h292q-8 -122 -53 -233t-124 -205l254 -328h-375l-84 111q-95 -83 -206 -124.5t-236 -41.5q-202 0 -333.5 124t-131.5 314q0 142 82.5 252.5t259.5 202.5z" />
<glyph unicode="'" horiz-adv-x="371" d="M76 1438h219v-561h-219v561z" />
<glyph unicode="(" horiz-adv-x="811" d="M801 -428h-260q-187 247 -277 481t-90 469q0 249 92 487t277 464h250q-137 -235 -204 -468.5t-67 -478.5q0 -250 69 -486t210 -468z" />
<glyph unicode=")" horiz-adv-x="811" d="M6 -428q141 232 210 468t69 486q0 245 -67 478.5t-204 468.5h250q185 -227 278 -465t93 -486q0 -234 -91 -467.5t-278 -482.5h-260z" />
<glyph unicode="*" d="M512 854l-172 -252l-195 137l197 240l-279 76l72 223l266 -94v289h222v-289l266 94l72 -223l-279 -76l195 -240l-193 -137z" />
<glyph unicode="+" horiz-adv-x="1706" d="M735 1221h238v-494h479v-231h-479v-496h-238v496h-481v231h481v494z" />
<glyph unicode="," horiz-adv-x="604" d="M121 0v352h368v-256q0 -200 -93 -309t-281 -129v123q102 25 150 75.5t48 133.5v10h-192z" />
<glyph unicode="-" horiz-adv-x="707" d="M96 395v297h512v-297h-512z" />
<glyph unicode="." horiz-adv-x="604" d="M117 0v352h370v-352h-370z" />
<glyph unicode="/" horiz-adv-x="678" d="M164 -190h-162l510 1701h164z" />
<glyph unicode="0" horiz-adv-x="1208" d="M422 707q0 -259 42.5 -369.5t139.5 -110.5q98 0 141 111.5t43 368.5q0 255 -43 366t-141 111q-97 0 -139.5 -106t-42.5 -351v-20zM57 707q0 373 136.5 559t410.5 186q275 0 412 -186t137 -559q0 -374 -137 -560t-412 -186q-274 0 -410.5 186t-136.5 560z" />
<glyph unicode="1" horiz-adv-x="1208" d="M520 0v928h-330v225h29q185 0 275 62t102 198h281v-1413h-357z" />
<glyph unicode="2" horiz-adv-x="1208" d="M59 0q11 171 80.5 299.5t216.5 245.5q46 36 139.5 99t135.5 97q71 59 106 119.5t35 124.5q0 93 -46 144t-130 51q-94 0 -142 -66.5t-48 -198.5l-332 1q2 246 144.5 392t379.5 146q236 0 382 -126.5t146 -330.5q0 -114 -45.5 -207.5t-154.5 -195.5q-56 -53 -193 -148 t-194 -161h575v-285h-1055z" />
<glyph unicode="3" horiz-adv-x="1208" d="M55 444h340q2 -103 53 -157t148 -54q86 0 139 51t53 134q0 96 -63.5 144t-192.5 48h-30v240h24q117 0 175.5 44.5t58.5 133.5q0 76 -43.5 120t-118.5 44q-90 0 -137.5 -48t-54.5 -147l-328 1q5 217 142.5 335.5t385.5 118.5q224 0 358 -105t134 -280q0 -94 -42.5 -168.5 t-129.5 -134.5q106 -46 160.5 -133.5t54.5 -210.5q0 -213 -151 -337t-410 -124q-250 0 -386.5 126.5t-138.5 358.5z" />
<glyph unicode="4" horiz-adv-x="1208" d="M662 537v557l-361 -557h361zM653 0v285h-604v276l549 852h403v-868h152v-260h-152v-285h-348z" />
<glyph unicode="5" horiz-adv-x="1208" d="M96 618l101 797h882v-282h-645l-37 -277q47 48 115.5 72t159.5 24q210 0 335.5 -129.5t125.5 -347.5q0 -240 -151.5 -377t-416.5 -137q-238 0 -370.5 112.5t-147.5 325.5h346q5 -77 52.5 -120t127.5 -43q96 0 146.5 57.5t50.5 167.5q0 109 -48.5 170t-135.5 61 q-60 0 -103.5 -21.5t-74.5 -66.5z" />
<glyph unicode="6" horiz-adv-x="1208" d="M621 219q87 0 136.5 61.5t49.5 172.5q0 109 -49 169t-137 60q-91 0 -140 -60t-49 -171q0 -110 50 -171t139 -61zM1114 1073h-321q-19 64 -56.5 94.5t-97.5 30.5q-95 0 -150 -88.5t-67 -263.5q61 50 128 75t140 25q211 0 333 -125t122 -342q0 -243 -140 -383.5 t-382 -140.5q-267 0 -411 190.5t-144 544.5q0 364 155.5 564t438.5 200q194 0 315.5 -102.5t136.5 -278.5z" />
<glyph unicode="7" horiz-adv-x="1208" d="M242 0q15 279 148.5 559t383.5 557h-715v297h1076v-283q-230 -256 -353.5 -539t-140.5 -591h-399z" />
<glyph unicode="8" horiz-adv-x="1208" d="M408 424q0 -94 52 -147.5t144 -53.5t144.5 53.5t52.5 147.5t-53 148.5t-144 54.5t-143.5 -54.5t-52.5 -148.5zM434 1032q0 -77 46 -122.5t124 -45.5q79 0 124.5 45t45.5 123t-45.5 123t-124.5 45t-124.5 -45t-45.5 -123zM295 766q-98 43 -146.5 116t-48.5 179 q0 185 132 287t372 102t372 -102t132 -287q0 -107 -47.5 -179.5t-145.5 -115.5q120 -44 178 -129.5t58 -216.5q0 -219 -142.5 -339t-404.5 -120t-404.5 120t-142.5 339q0 130 59 215.5t179 130.5z" />
<glyph unicode="9" horiz-adv-x="1208" d="M584 1190q-88 0 -137.5 -61t-49.5 -171q0 -109 49 -169t138 -60q91 0 139.5 60t48.5 172q0 108 -49.5 168.5t-138.5 60.5zM90 338h322q18 -65 55 -96t96 -31q96 0 151.5 90t67.5 264q-60 -50 -127.5 -75t-140.5 -25q-210 0 -332.5 125t-122.5 342q0 243 140 382.5 t383 139.5q267 0 411 -189.5t144 -543.5q0 -364 -156 -564t-438 -200q-195 0 -316 102t-137 279z" />
<glyph unicode=":" horiz-adv-x="651" d="M141 688v352h369v-352h-369zM141 0v352h369v-352h-369z" />
<glyph unicode=";" horiz-adv-x="651" d="M143 688v352h371v-352h-371zM143 0v352h371v-256q0 -199 -94 -308.5t-283 -129.5v123q104 27 152.5 77.5t48.5 131.5v10h-195z" />
<glyph unicode="&#x3c;" horiz-adv-x="1706" d="M1442 1214v-253l-854 -351l854 -348v-254l-1178 486v233z" />
<glyph unicode="=" horiz-adv-x="1706" d="M254 502h1198v-230h-1198v230zM254 950h1198v-231h-1198v231z" />
<glyph unicode="&#x3e;" horiz-adv-x="1706" d="M264 1214l1178 -487v-233l-1178 -486v254l854 348l-854 351v253z" />
<glyph unicode="?" horiz-adv-x="1223" d="M434 0v352h369v-352h-369zM449 469v8q0 102 34.5 189t94.5 137q20 17 59 48q168 134 168 222q0 70 -52.5 111t-142.5 41q-93 0 -143.5 -53.5t-50.5 -153.5v-12h-357q10 244 150.5 371.5t398.5 127.5q251 0 403 -116.5t152 -305.5q0 -98 -35 -174.5t-110 -140.5 q-17 -15 -51 -43q-173 -145 -179 -256h-339z" />
<glyph unicode="@" horiz-adv-x="2048" d="M1161 262q-56 -82 -126.5 -120t-168.5 -38q-163 0 -247 87.5t-84 257.5q0 241 141.5 404t349.5 163q77 0 134 -30.5t95 -92.5l52 92h206l-153 -610q0 -2 -1 -6q-3 -18 -3 -27q0 -30 16 -44.5t47 -14.5q137 0 240.5 143.5t103.5 335.5q0 239 -179.5 390t-467.5 151 q-148 0 -274 -36.5t-230 -109.5q-155 -110 -239 -274.5t-84 -356.5q0 -302 203 -481.5t544 -179.5q164 0 316 47.5t280 138.5l97 -135q-156 -117 -329 -175t-364 -58q-192 0 -354.5 49t-288.5 145q-157 122 -234 281.5t-77 361.5q0 169 53 320.5t156 277.5 q148 183 359.5 278t467.5 95q170 0 320 -46t260 -132q136 -107 203 -243t67 -306q0 -167 -65.5 -307t-190.5 -240q-69 -56 -154 -85.5t-176 -29.5q-106 0 -161 40t-60 120zM1198 696q-9 76 -50 116t-110 40q-103 0 -181.5 -121.5t-78.5 -286.5q0 -83 35 -128.5t98 -45.5 q84 0 148 59t88 158z" />
<glyph unicode="A" horiz-adv-x="1462" d="M565 575h322l-164 508zM530 1473h412l520 -1473h-405l-90 270h-492l-84 -270h-391z" />
<glyph unicode="B" horiz-adv-x="1493" d="M506 897h303q96 0 143 35.5t47 107.5q0 67 -44 101.5t-130 34.5h-319v-279zM506 293h285q135 0 189 37.5t54 126.5q0 80 -51.5 120.5t-153.5 40.5h-323v-325zM145 0v1473h715q257 0 379.5 -92.5t122.5 -284.5q0 -119 -54.5 -196.5t-166.5 -119.5q128 -33 196 -118.5 t68 -212.5q0 -124 -56.5 -224t-158.5 -155q-69 -38 -167 -54t-302 -16h-576z" />
<glyph unicode="C" horiz-adv-x="1526" d="M1452 516q-38 -265 -208.5 -411t-440.5 -146q-323 0 -521 211t-198 555q0 358 201.5 571t539.5 213q268 0 437.5 -141t193.5 -385h-354q-26 106 -98.5 159.5t-190.5 53.5q-158 0 -250 -125t-92 -342q0 -216 87 -335.5t245 -119.5q127 0 203.5 62t95.5 180h350z" />
<glyph unicode="D" horiz-adv-x="1534" d="M524 309h205q175 0 256.5 103t81.5 323q0 221 -81.5 323.5t-256.5 102.5h-205v-852zM145 0v1473h629q327 0 501.5 -190.5t174.5 -547.5q0 -369 -180.5 -552t-544.5 -183h-580z" />
<glyph unicode="E" horiz-adv-x="1368" d="M145 0v1473h1119v-302h-742v-260h678v-295h-678v-315h766v-301h-1143z" />
<glyph unicode="F" horiz-adv-x="1249" d="M147 0v1473h1057v-306h-682v-305h592v-305h-592v-557h-375z" />
<glyph unicode="G" horiz-adv-x="1618" d="M1253 0l-30 190q-83 -116 -197.5 -172.5t-267.5 -56.5q-143 0 -264.5 52t-214.5 153q-97 104 -147 245t-50 308q0 361 206.5 579t549.5 218q259 0 427.5 -130t213.5 -364h-361q-36 95 -110 143.5t-181 48.5q-162 0 -262 -132t-100 -349q0 -214 98.5 -340.5t263.5 -126.5 q132 0 218.5 67t107.5 187h-328v283h664v-803h-236z" />
<glyph unicode="H" horiz-adv-x="1565" d="M145 0v1473h379v-523h516v523h379v-1473h-379v621h-516v-621h-379z" />
<glyph unicode="I" horiz-adv-x="684" d="M154 0v1473h376v-1473h-376z" />
<glyph unicode="J" horiz-adv-x="1200" d="M43 573h350v-98q0 -113 35.5 -162t116.5 -49q84 0 116.5 57t32.5 224v928h369v-916q0 -320 -121.5 -457t-398.5 -137q-255 0 -378.5 135.5t-123.5 413.5q0 10 1 30.5t1 30.5z" />
<glyph unicode="K" horiz-adv-x="1495" d="M145 0v1473h371v-562l524 562h453l-596 -619l610 -854h-450l-414 590l-127 -127v-463h-371z" />
<glyph unicode="L" horiz-adv-x="1255" d="M154 0v1473h378v-1154h713v-319h-1091z" />
<glyph unicode="M" horiz-adv-x="1888" d="M145 0v1473h519l194 -717q26 -95 47 -184.5t37 -174.5q19 90 43 188.5t55 211.5l183 676h518v-1473h-344v653q0 69 3.5 193.5t10.5 287.5l-283 -1134h-374l-277 1134q7 -196 11 -352.5t4 -244.5v-537h-347z" />
<glyph unicode="N" horiz-adv-x="1567" d="M143 0v1473h408l278 -484q68 -118 129 -234t115 -229q-8 167 -12 313t-4 257v377h364v-1473h-407l-289 498q-51 88 -111 197.5t-127 236.5q11 -144 16 -268t5 -220v-444h-365z" />
<glyph unicode="O" horiz-adv-x="1645" d="M467 735q0 -225 91.5 -345t262.5 -120q172 0 264.5 120t92.5 345q0 224 -92.5 344.5t-264.5 120.5q-171 0 -262.5 -120t-91.5 -345zM84 735q0 359 198.5 567.5t538.5 208.5q341 0 541.5 -209t200.5 -567t-200.5 -567t-541.5 -209q-340 0 -538.5 208.5t-198.5 567.5z" />
<glyph unicode="P" horiz-adv-x="1411" d="M524 823h250q102 0 150.5 43.5t48.5 134.5q0 88 -50.5 131.5t-152.5 43.5h-246v-353zM145 0v1473h674q256 0 390 -118.5t134 -342.5q0 -235 -132 -360.5t-380 -125.5h-307v-526h-379z" />
<glyph unicode="Q" horiz-adv-x="1645" d="M962 297l-151 160l178 170l144 -152q22 56 33.5 120.5t11.5 137.5q0 226 -92 346.5t-265 120.5q-171 0 -262.5 -120t-91.5 -345t91 -345t263 -120q40 0 75.5 7t65.5 20zM1202 49q-83 -45 -176.5 -67.5t-200.5 -22.5q-342 0 -541.5 209t-199.5 567q0 359 198.5 567.5 t538.5 208.5q341 0 541.5 -208.5t200.5 -565.5q0 -167 -43 -300t-127 -230l159 -168l-176 -170z" />
<glyph unicode="R" horiz-adv-x="1503" d="M518 842h281q114 0 167.5 42t53.5 134q0 81 -52 120.5t-159 39.5h-291v-336zM143 0v1473h705q280 0 412.5 -100t132.5 -310q0 -124 -56.5 -212.5t-175.5 -148.5q97 -37 137 -100.5t46 -223.5q3 -45 6 -121q7 -178 61 -206v-51h-395q-29 78 -33 214t-8 171q-9 86 -58 126 t-147 40h-252v-551h-375z" />
<glyph unicode="S" horiz-adv-x="1397" d="M74 489h362q4 -126 74 -189.5t205 -63.5q115 0 178 38t63 107q0 35 -15 62.5t-42 41.5q-41 22 -201 69t-270 91q-159 63 -241.5 166.5t-82.5 241.5q0 211 158.5 335.5t429.5 124.5q266 0 422 -131t156 -354h-355q-12 103 -72.5 152t-174.5 49q-91 0 -148 -37.5t-57 -95.5 q0 -98 271 -185q49 -16 75 -24l15 -5q280 -91 350 -147q71 -58 108 -136.5t37 -174.5q0 -220 -168.5 -342.5t-472.5 -122.5q-287 0 -437 131.5t-167 398.5z" />
<glyph unicode="T" horiz-adv-x="1260" d="M440 0v1174h-422v299h1221v-299h-422v-1174h-377z" />
<glyph unicode="U" horiz-adv-x="1509" d="M135 1473h371v-920q0 -152 57.5 -216.5t190.5 -64.5q131 0 188 64.5t57 216.5v920h375v-875q0 -185 -36 -295t-119 -186q-87 -79 -202.5 -118.5t-260.5 -39.5t-260.5 39.5t-202.5 118.5q-84 77 -121 187.5t-37 293.5v875z" />
<glyph unicode="V" horiz-adv-x="1321" d="M481 0l-506 1473h400l207 -757q5 -19 17 -62q38 -136 58 -228q11 45 27 106t45 160l217 781h397l-509 -1473h-353z" />
<glyph unicode="W" horiz-adv-x="1944" d="M393 0l-403 1473h379l206 -1045l197 1045h402l194 -1045l207 1045h379l-406 -1473h-368l-209 1059l-209 -1059h-369z" />
<glyph unicode="X" horiz-adv-x="1335" d="M-14 0l475 756l-449 717h430l226 -394l225 394h430l-453 -717l480 -756h-435l-247 428l-250 -428h-432z" />
<glyph unicode="Y" horiz-adv-x="1350" d="M489 0v555l-509 918h423l271 -594l270 594h426l-514 -918v-555h-367z" />
<glyph unicode="Z" horiz-adv-x="1331" d="M61 0v295l752 881h-723v297h1190v-297l-752 -881h752v-295h-1219z" />
<glyph unicode="[" horiz-adv-x="838" d="M819 -430h-586v1903h586v-250h-254v-1403h254v-250z" />
<glyph unicode="\" horiz-adv-x="678" d="M676 -190h-162l-512 1701h164z" />
<glyph unicode="]" horiz-adv-x="838" d="M33 -430v250h254v1403h-254v250h585v-1903h-585z" />
<glyph unicode="^" horiz-adv-x="2048" d="M879 1462h288l465 -563h-264l-344 342l-346 -342h-264z" />
<glyph unicode="_" d="M0 -244h1024v-239h-1024v239z" />
<glyph unicode="`" d="M207 1587h287l192 -368h-154z" />
<glyph unicode="a" horiz-adv-x="1194" d="M743 512q-41 -26 -144 -48q-50 -10 -76 -17q-64 -18 -90.5 -46t-26.5 -75q0 -58 36 -93.5t95 -35.5q91 0 148.5 52.5t57.5 137.5v125zM1135 0h-363q-6 26 -10.5 54t-8.5 58q-75 -75 -159.5 -111t-185.5 -36q-157 0 -248.5 86.5t-91.5 233.5q0 135 71.5 219.5t216.5 118.5 q80 18 203 39q184 30 184 88v26q0 47 -35.5 71.5t-105.5 24.5q-76 0 -120.5 -31t-55.5 -91h-328q26 184 152.5 274t359.5 90q145 0 244.5 -35t155.5 -106q39 -51 55 -121.5t16 -226.5v-412q0 -74 13.5 -116.5t40.5 -55.5v-41z" />
<glyph unicode="b" horiz-adv-x="1327" d="M897 555q0 133 -55 210t-150 77q-101 0 -157 -75.5t-56 -211.5q0 -148 52.5 -224.5t154.5 -76.5t156.5 77.5t54.5 223.5zM129 1473h354v-523q54 84 137.5 127t190.5 43q199 0 327 -162t128 -419q0 -255 -127.5 -412.5t-331.5 -157.5q-105 0 -183.5 42.5t-138.5 131.5 v-143h-356v1473z" />
<glyph unicode="c" horiz-adv-x="1184" d="M1133 403q-27 -207 -166.5 -322.5t-364.5 -115.5q-243 0 -391 155.5t-148 411.5q0 276 150 435t408 159q224 0 360.5 -112.5t153.5 -311.5h-359q-15 76 -55 114t-103 38q-92 0 -140 -79t-48 -232q0 -150 45.5 -223.5t138.5 -73.5q70 0 111.5 39t56.5 118h351z" />
<glyph unicode="d" horiz-adv-x="1327" d="M1204 1473v-1473h-356v143q-60 -89 -138.5 -131.5t-183.5 -42.5q-204 0 -331 157.5t-127 412.5q0 257 127.5 419t326.5 162q107 0 190.5 -43t137.5 -127v523h354zM436 555q0 -146 54.5 -223.5t156.5 -77.5t154.5 76.5t52.5 224.5q0 137 -55 212t-156 75q-95 0 -151 -77 t-56 -210z" />
<glyph unicode="e" horiz-adv-x="1223" d="M418 659l405 1q-2 105 -55.5 164t-146.5 59q-88 0 -140.5 -58t-62.5 -166zM805 342h342q-48 -179 -188.5 -277t-348.5 -98q-253 0 -400 153.5t-147 418.5q0 270 148 427.5t399 157.5q259 0 407 -160t148 -442q0 -26 -0.5 -39.5t-1.5 -23.5h-735q0 -115 49.5 -175.5 t145.5 -60.5q71 0 117 30t65 89z" />
<glyph unicode="f" horiz-adv-x="731" d="M180 0v842h-155v219h155q-1 13 -1.5 28t-0.5 44q0 190 87.5 271t291.5 81q29 0 68.5 -1.5t87.5 -5.5l-1 -237q-8 1 -19.5 1.5t-30.5 0.5q-73 0 -99 -30.5t-26 -120.5v-31h176v-219h-176v-842h-357z" />
<glyph unicode="g" horiz-adv-x="1325" d="M127 -92h356q14 -49 54.5 -72.5t109.5 -23.5q115 0 162 51.5t47 185.5v115q-58 -88 -141.5 -131t-194.5 -43q-200 0 -327 154.5t-127 402.5q0 254 127 411.5t331 157.5q113 0 196 -42t148 -132v145h334v-897q0 -203 -15 -285.5t-50 -137.5q-64 -101 -186.5 -153 t-293.5 -52q-247 0 -376.5 84.5t-153.5 261.5zM434 549q0 -130 55 -204.5t150 -74.5q101 0 157 73.5t56 205.5q0 143 -52.5 217t-154.5 74t-156.5 -75t-54.5 -216z" />
<glyph unicode="h" horiz-adv-x="1280" d="M125 0v1473h356v-527q62 88 143 129t191 41q171 0 260.5 -94t89.5 -274v-748h-356v547q0 192 -32 244.5t-118 52.5q-94 0 -137 -62.5t-43 -199.5v-582h-354z" />
<glyph unicode="i" horiz-adv-x="604" d="M125 1186v287h354v-287h-354zM125 0v1087h354v-1087h-354z" />
<glyph unicode="j" horiz-adv-x="621" d="M137 1186v287h357v-287h-357zM137 1087h357v-1003q0 -243 -28.5 -326t-98.5 -133q-45 -32 -112 -47.5t-163 -15.5q-47 0 -71.5 1t-44.5 3l-1 274h11q90 0 120.5 34t30.5 155v1058z" />
<glyph unicode="k" horiz-adv-x="1239" d="M125 0v1473h350v-760l328 374h418l-377 -415l387 -672h-395l-230 430l-131 -137v-293h-350z" />
<glyph unicode="l" horiz-adv-x="604" d="M123 0v1473h356v-1473h-356z" />
<glyph unicode="m" horiz-adv-x="1898" d="M125 0v1087h342v-149q54 89 133.5 132.5t190.5 43.5q118 0 195.5 -43.5t117.5 -132.5q53 88 134.5 132t191.5 44q175 0 264.5 -97t89.5 -288v-729h-348v621q0 124 -35.5 173.5t-120.5 49.5q-86 0 -127 -64t-41 -198v-582h-315v621q0 124 -35.5 173.5t-120.5 49.5 q-86 0 -127 -64t-41 -198v-582h-348z" />
<glyph unicode="n" horiz-adv-x="1280" d="M125 0v1087h348v-149q56 89 137 132.5t193 43.5q191 0 276.5 -95.5t85.5 -311.5v-707h-356v547q0 192 -32 244.5t-118 52.5q-94 0 -137 -62.5t-43 -199.5v-582h-354z" />
<glyph unicode="o" horiz-adv-x="1280" d="M428 545q0 -149 55 -229t156 -80q102 0 157.5 80.5t55.5 228.5q0 147 -55.5 227t-157.5 80t-156.5 -79.5t-54.5 -227.5zM63 545q0 273 153 427t423 154q271 0 424.5 -154t153.5 -427t-153.5 -427.5t-424.5 -154.5q-272 0 -424 154t-152 428z" />
<glyph unicode="p" horiz-adv-x="1327" d="M129 -436v1523h356v-145q60 89 138.5 131.5t183.5 42.5q204 0 331.5 -157.5t127.5 -411.5q0 -257 -128 -419.5t-327 -162.5q-107 0 -190.5 43.5t-137.5 126.5v-571h-354zM897 530q0 147 -54.5 224t-156.5 77t-154.5 -76t-52.5 -225q0 -136 56 -210t157 -74q96 0 150.5 76 t54.5 208z" />
<glyph unicode="q" horiz-adv-x="1327" d="M1200 -436h-356v571q-54 -83 -137.5 -126.5t-190.5 -43.5q-199 0 -326 162t-127 420q0 255 126.5 412t330.5 157q105 0 183.5 -42.5t138.5 -131.5v145h358v-1523zM430 530q0 -132 55.5 -208t151.5 -76q101 0 156 74t55 210q0 149 -52.5 225t-154.5 76t-156.5 -77 t-54.5 -224z" />
<glyph unicode="r" horiz-adv-x="864" d="M125 0v1087h342v-190q57 112 142 163.5t216 53.5v-352q-23 3 -45.5 4.5t-42.5 1.5q-82 0 -135.5 -24.5t-85.5 -75.5q-20 -34 -28.5 -97.5t-8.5 -205.5v-365h-354z" />
<glyph unicode="s" horiz-adv-x="1202" d="M74 332h356q6 -72 53.5 -108t137.5 -36q75 0 118 29t43 78q0 63 -168 106q-90 23 -145 41q-204 67 -279 139.5t-75 190.5q0 165 126 259.5t347 94.5q236 0 364 -80.5t144 -240.5h-342q-11 55 -50 81.5t-108 26.5q-64 0 -98.5 -24.5t-34.5 -69.5q0 -64 174 -111 q42 -11 65 -18q162 -47 225 -70.5t91 -44.5q59 -43 87 -100t28 -133q0 -177 -138 -277t-385 -100q-242 0 -382 96t-154 271z" />
<glyph unicode="t" horiz-adv-x="737" d="M14 872v215h146v308h356v-308h182v-215h-182v-471q0 -108 28 -143t105 -35q17 0 26.5 0.5t18.5 1.5v-227q-56 -11 -109.5 -17t-103.5 -6q-185 0 -253 90.5t-68 385.5v421h-146z" />
<glyph unicode="u" horiz-adv-x="1280" d="M1157 1087v-1087h-348v150q-64 -91 -144.5 -134t-185.5 -43q-180 0 -271 92.5t-91 274.5v747h356v-608q0 -134 33.5 -184.5t116.5 -50.5q93 0 135.5 61.5t42.5 200.5v581h356z" />
<glyph unicode="v" horiz-adv-x="1145" d="M391 0l-403 1087h377l208 -757l211 757h375l-403 -1087h-365z" />
<glyph unicode="w" horiz-adv-x="1683" d="M328 0l-322 1087h363l155 -747l131 747h367l135 -747l156 747h362l-321 -1087h-367l-145 717l-154 -717h-360z" />
<glyph unicode="x" horiz-adv-x="1114" d="M-25 0l383 567l-368 520h420l149 -260l154 260h415l-368 -520l385 -567h-416l-172 299l-168 -299h-414z" />
<glyph unicode="y" horiz-adv-x="1151" d="M725 -121q-55 -152 -94 -211t-90 -82q-38 -16 -92.5 -23t-192.5 -7h-94v282h69q99 0 135.5 25t36.5 86q0 41 -49 167l-4 9l-366 962h383l204 -741l209 741h379z" />
<glyph unicode="z" horiz-adv-x="1081" d="M39 0v262l541 569h-506v256h950v-256l-537 -569h555v-262h-1003z" />
<glyph unicode="{" d="M893 1477v-242q-7 0 -21 1t-20 1q-98 0 -132 -35.5t-34 -146.5v-240q0 -140 -46 -200t-165 -85q120 -24 165.5 -82.5t45.5 -199.5v-242q0 -110 33.5 -145t130.5 -35q7 0 21.5 1t21.5 1v-242q-15 0 -42 -1t-40 -1q-108 0 -179.5 12t-119.5 37q-59 32 -82.5 88.5 t-23.5 192.5v256q0 133 -49.5 187.5t-168.5 54.5q-4 0 -17 -1t-19 -1v241q6 0 18 -1t18 -1q118 0 168 55.5t50 188.5v254q0 136 24 193.5t82 89.5q48 25 120.5 37t180.5 12q12 0 38.5 -1t41.5 -1z" />
<glyph unicode="|" d="M393 1565h240v-2048h-240v2048z" />
<glyph unicode="}" d="M133 1477q15 0 41.5 1t38.5 1q108 0 180 -12t121 -37q58 -32 82.5 -89.5t24.5 -193.5v-254q0 -134 49 -189t168 -55q6 0 18 1t18 1v-241q-6 0 -18 1t-18 1q-119 0 -168 -55t-49 -187v-256q0 -137 -24.5 -194.5t-82.5 -88.5q-45 -24 -113.5 -35.5t-177.5 -11.5 q-14 0 -44 1t-46 1v242q9 0 23 -1t20 -1q97 0 130.5 34.5t33.5 145.5v242q0 140 46 199t165 83q-120 25 -165.5 84t-45.5 201v240q0 111 -33.5 146.5t-126.5 35.5q-7 0 -22.5 -1t-24.5 -1v242z" />
<glyph unicode="~" horiz-adv-x="1706" d="M1530 819v-254q-101 -69 -194 -103t-183 -34q-45 0 -89 7.5t-83 21.5q-13 4 -38 13q-255 89 -382 89q-84 0 -175.5 -37.5t-207.5 -120.5v254q112 73 207.5 108.5t179.5 35.5q63 0 126.5 -12t169.5 -46q16 -5 51 -17q159 -56 247 -56q84 0 173.5 36t197.5 115z" />
<glyph unicode="&#xa1;" horiz-adv-x="698" d="M451 993l84 -583v-410h-369v410l86 583h199zM535 1473v-355h-369v355h369z" />
<glyph unicode="&#xa2;" horiz-adv-x="1208" d="M776 403h352q-24 -204 -159.5 -321t-347.5 -117q-34 0 -70.5 4t-75.5 13l-86 -254h-117l97 284q-149 65 -228.5 200t-79.5 323q0 273 150.5 433t404.5 160q25 0 53 -3t66 -11l72 223h121l-82 -250q131 -49 201 -143.5t79 -234.5h-340q-4 25 -13 47t-23 41l-185 -547 q13 -3 26.5 -4.5t26.5 -1.5q68 0 107.5 40t50.5 119zM647 852q-6 1 -13.5 1.5t-21.5 0.5q-90 0 -137 -77t-47 -224q0 -76 11.5 -133t33.5 -96z" />
<glyph unicode="&#xa3;" horiz-adv-x="1208" d="M186 -37l-131 236q111 67 164 141t53 162q0 25 -4.5 52.5t-13.5 59.5h-180v146h114q-45 79 -67.5 151.5t-22.5 139.5q0 183 141 291t382 108q243 0 377 -120t151 -353h-326q-15 107 -66.5 161t-138.5 54q-73 0 -122.5 -44t-49.5 -110q0 -52 59 -191q23 -56 36 -87h264 v-146h-229q2 -20 3 -30.5t1 -18.5q0 -85 -48 -164.5t-151 -167.5q61 31 121 46.5t119 15.5q52 0 136 -20.5t117 -20.5q43 0 88.5 14.5t96.5 44.5l110 -250q-77 -49 -154.5 -74.5t-150.5 -25.5q-56 0 -188 42t-209 42q-63 0 -134.5 -21.5t-146.5 -62.5z" />
<glyph unicode="&#xa4;" horiz-adv-x="1208" d="M934 915l-43 -131h-375q-1 -13 -1.5 -29t-0.5 -48v-54h332l-43 -131h-281q8 -156 50.5 -225.5t127.5 -69.5q77 0 122 48.5t55 140.5h331q-36 -224 -169.5 -339.5t-352.5 -115.5q-220 0 -353.5 143.5t-168.5 417.5h-176l45 131h119v54q0 32 0.5 48.5t0.5 28.5h-155l43 131 h125q36 269 171.5 403t371.5 134q210 0 342 -113.5t163 -322.5h-337q-13 86 -54 127t-114 41q-82 0 -127.5 -66.5t-57.5 -202.5h410z" />
<glyph unicode="&#xa5;" horiz-adv-x="1337" d="M489 0v532h-469v146h390l-70 129h-320v143h238l-258 463h406l260 -569l260 569h409l-262 -463h238v-143h-320l-76 -129h396v-146h-469v-532h-353z" />
<glyph unicode="&#xa6;" d="M393 408h240v-758h-240v758zM393 1432h240v-758h-240v758z" />
<glyph unicode="&#xa7;" d="M635 477q47 21 72.5 51.5t25.5 67.5q0 64 -170 137q-112 48 -180 84q-48 -24 -73 -55.5t-25 -67.5q0 -67 206 -154q90 -38 144 -63zM86 155h285q3 -73 43.5 -114t109.5 -41q54 0 88.5 29.5t34.5 74.5q0 39 -28.5 65t-135.5 67l-161 63q-153 61 -227.5 148.5t-74.5 205.5 q0 92 49.5 163t141.5 112q-58 49 -88.5 110.5t-30.5 130.5q0 163 110 252.5t310 89.5q189 0 299.5 -95.5t118.5 -264.5h-293q0 66 -36 105.5t-95 39.5q-54 0 -87.5 -26.5t-33.5 -67.5t35.5 -74t124.5 -71l155 -68q163 -70 231 -152.5t68 -203.5q0 -105 -49.5 -177.5 t-134.5 -90.5q64 -49 95.5 -110t31.5 -136q0 -156 -109.5 -245t-302.5 -89q-214 0 -327.5 95t-116.5 275z" />
<glyph unicode="&#xa8;" d="M567 1268v270h252v-270h-252zM205 1268v270h250v-270h-250z" />
<glyph unicode="&#xa9;" horiz-adv-x="1706" d="M1221 891h-213q-7 67 -47.5 104t-108.5 37q-83 0 -129.5 -77t-46.5 -216q0 -140 47.5 -212t138.5 -72q67 0 106.5 40.5t45.5 114.5h215q-6 -143 -107.5 -230t-263.5 -87q-190 0 -301 117.5t-111 320.5q0 207 111 329t299 122q157 0 257 -80t108 -211zM854 1350 q-126 0 -235 -45.5t-195 -133.5q-88 -89 -135 -201t-47 -233q0 -119 47 -230.5t135 -199.5q87 -87 198 -133.5t232 -46.5t234 47t202 135q86 84 130 193t44 235q0 125 -45 235.5t-131 196.5q-88 89 -198.5 135t-235.5 46zM852 1485q154 0 289.5 -56t242.5 -163 q106 -106 160.5 -240.5t54.5 -288.5q0 -153 -54 -287t-159 -237q-109 -108 -247 -165.5t-287 -57.5q-148 0 -283.5 57t-242.5 164t-163.5 241.5t-56.5 284.5q0 148 57.5 285t164.5 246q105 106 238 161.5t286 55.5z" />
<glyph unicode="&#xaa;" horiz-adv-x="895" d="M557 1069q-32 -19 -115 -35q-34 -6 -51 -10q-47 -13 -66.5 -32.5t-19.5 -53.5q0 -41 27 -65.5t71 -24.5q69 0 111.5 37t42.5 96v88zM852 711h-272q-4 14 -7 32l-8 48q-57 -54 -120 -79.5t-140 -25.5q-117 0 -185.5 60.5t-68.5 162.5q0 96 53.5 154.5t163.5 83.5 q59 13 150 27q139 21 139 61v18q0 34 -26.5 51t-77.5 17q-59 0 -92.5 -21.5t-41.5 -64.5h-245q20 130 114.5 193t270.5 63q106 0 181 -24.5t118 -73.5q29 -36 41 -84.5t12 -159.5v-289q0 -52 10 -82t31 -39v-28z" />
<glyph unicode="&#xab;" horiz-adv-x="1022" d="M946 160l-379 237v299l379 234v-258l-207 -127l207 -127v-258zM446 160l-376 237v299l376 234v-258l-206 -127l206 -127v-258z" />
<glyph unicode="&#xac;" horiz-adv-x="1706" d="M254 866h1198v-501h-229v274h-969v227z" />
<glyph unicode="&#xad;" horiz-adv-x="707" d="M96 395v297h512v-297h-512z" />
<glyph unicode="&#xae;" horiz-adv-x="1706" d="M762 1022v-219h80q74 0 110.5 26.5t36.5 79.5q0 59 -38 86t-122 27h-67zM537 1163h329q174 0 264.5 -60t90.5 -177q0 -81 -46 -139t-128 -82l182 -361h-248l-154 326h-65v-326h-225v819zM854 1350q-124 0 -232 -44t-194 -128q-90 -90 -137 -203t-47 -238q0 -121 44 -229 t130 -195q87 -90 199 -138t235 -48q121 0 232.5 45.5t199.5 130.5t134 196.5t46 237.5q0 124 -44 233.5t-128 194.5q-89 91 -200.5 138t-237.5 47zM852 1485q156 0 294 -57.5t245 -167.5q101 -104 154.5 -238t53.5 -285q0 -155 -56.5 -291t-164.5 -239q-109 -105 -245 -161 t-281 -56q-151 0 -287 58t-243 169q-105 108 -160.5 241.5t-55.5 278.5q0 151 59 290t169 247q105 104 237 157.5t281 53.5z" />
<glyph unicode="&#xaf;" d="M205 1319v168h614v-168h-614z" />
<glyph unicode="&#xb0;" horiz-adv-x="674" d="M338 1321q-69 0 -117.5 -48t-48.5 -116q0 -70 48 -118t118 -48q68 0 116 49t48 117t-48 116t-116 48zM338 1466q129 0 220 -91t91 -220q0 -128 -91.5 -219.5t-221.5 -91.5q-129 0 -219 90.5t-90 220.5q0 131 90.5 221t220.5 90z" />
<glyph unicode="&#xb1;" horiz-adv-x="1706" d="M254 213h1198v-231h-1198v231zM735 1241h238v-319h479v-232h-479v-319h-238v319h-481v232h481v319z" />
<glyph unicode="&#xb2;" horiz-adv-x="797" d="M39 566q8 104 53.5 180.5t143.5 146.5q27 19 89 56.5t91 60.5q48 35 71 71.5t23 75.5q0 55 -30.5 86t-86.5 31q-62 0 -93.5 -40.5t-31.5 -119.5h-219q0 147 94.5 235.5t251.5 88.5q156 0 252 -76t96 -199q0 -68 -30 -123.5t-103 -117.5q-36 -32 -126 -89t-128 -98h379 v-170z" />
<glyph unicode="&#xb3;" horiz-adv-x="797" d="M37 831h223q2 -62 35.5 -94t97.5 -32q57 0 92 30.5t35 79.5q0 58 -42 87.5t-126 29.5h-20v143h16q77 0 115.5 26.5t38.5 80.5q0 45 -29 71.5t-78 26.5q-60 0 -91 -28.5t-36 -88.5l-217 1q3 129 93.5 200.5t254.5 71.5q149 0 237.5 -62.5t88.5 -167.5q0 -57 -28.5 -102 t-86.5 -80q71 -28 107.5 -80.5t36.5 -126.5q0 -127 -100 -201.5t-271 -74.5q-165 0 -255.5 76t-90.5 214z" />
<glyph unicode="&#xb4;" d="M817 1587l-325 -368h-154l192 368h287z" />
<glyph unicode="&#xb5;" horiz-adv-x="1315" d="M193 1090h358l-80 -529q-6 -41 -9 -77.5t-3 -65.5q0 -85 35.5 -127.5t107.5 -42.5q88 0 138.5 68.5t74.5 220.5l88 553h357l-175 -1090h-321l18 125q-40 -75 -89.5 -108t-119.5 -33q-59 0 -106.5 31t-77.5 89l-82 -532h-352z" />
<glyph unicode="&#xb6;" d="M997 1479v-123h-106v-1356h-176v1356h-150v-1356h-174v784q-164 6 -263 101t-99 245q0 158 106 253.5t283 95.5h579z" />
<glyph unicode="&#xb7;" horiz-adv-x="604" d="M117 707q0 78 53 132t131 54t132 -54t54 -132q0 -79 -54 -133t-132 -54t-131 54t-53 133z" />
<glyph unicode="&#xb8;" d="M272 -438v137q80 -22 149.5 -33.5t121.5 -11.5q43 0 64.5 17.5t21.5 54.5q0 32 -28.5 47.5t-90.5 15.5q-21 0 -33 -0.5t-22 -1.5v213h114v-84h19q111 0 170 -49.5t59 -142.5q0 -100 -66 -154.5t-188 -54.5q-58 0 -130 11.5t-161 35.5z" />
<glyph unicode="&#xb9;" horiz-adv-x="799" d="M344 565v557h-217v135h18q123 0 182 37.5t66 118.5h187v-848h-236z" />
<glyph unicode="&#xba;" horiz-adv-x="961" d="M322 1092q0 -104 40.5 -159.5t116.5 -55.5q77 0 118.5 56t41.5 159t-41.5 159t-118.5 56q-76 0 -116.5 -55.5t-40.5 -159.5zM47 1092q0 191 114.5 299t317.5 108q204 0 319 -108t115 -299q0 -192 -115 -300t-319 -108q-203 0 -317.5 108t-114.5 300z" />
<glyph unicode="&#xbb;" horiz-adv-x="1022" d="M575 160v258l205 127l-205 127v258l377 -234v-299zM76 160v258l207 127l-207 127v258l377 -234v-299z" />
<glyph unicode="&#xbc;" horiz-adv-x="1866" d="M1520 301v311l-226 -311h226zM1516 0v160h-381v153l346 478h254v-486h96v-145h-96v-160h-219zM420 0l848 1452h182l-848 -1452h-182zM328 621v520h-207v125h18q116 0 173 35t65 110h176v-790h-225z" />
<glyph unicode="&#xbd;" horiz-adv-x="1866" d="M1141 0q7 96 51 168t137 137q27 19 86 54.5t86 56.5q45 32 67.5 66t22.5 69q0 53 -29.5 82t-82.5 29q-59 0 -89 -38t-30 -112h-209q0 138 90 220.5t240 82.5q148 0 241 -71t93 -185q0 -64 -28.5 -115.5t-98.5 -111.5q-35 -28 -121.5 -81.5t-122.5 -90.5h362v-160h-665z M420 0l848 1452h182l-848 -1452h-182zM328 621v520h-207v125h18q116 0 173 35t65 110h176v-790h-225z" />
<glyph unicode="&#xbe;" horiz-adv-x="1864" d="M1520 301v311l-226 -311h226zM1516 0v160h-381v153l346 478h254v-486h96v-145h-96v-160h-219zM420 0l848 1452h182l-848 -1452h-182zM35 870h215q0 -57 32 -87.5t93 -30.5q55 0 89 28t34 74q0 54 -40.5 81.5t-121.5 27.5h-21v133h17q73 0 110 25t37 75q0 42 -27.5 67 t-74.5 25q-57 0 -86.5 -26.5t-34.5 -81.5h-207q4 122 90 188t242 66q142 0 226.5 -59t84.5 -156q0 -53 -26.5 -95t-81.5 -75q66 -27 100.5 -75.5t34.5 -117.5q0 -119 -95 -188.5t-259 -69.5q-157 0 -242.5 70.5t-87.5 201.5z" />
<glyph unicode="&#xbf;" horiz-adv-x="1223" d="M801 1468v-352h-371v352h371zM784 999v-8q0 -102 -34.5 -188.5t-94.5 -136.5q-22 -19 -62 -51q-167 -133 -167 -220q0 -69 53 -110t144 -41q94 0 145 53.5t51 153.5v12h354q-9 -244 -148.5 -372t-397.5 -128q-252 0 -404.5 117t-152.5 305q0 98 35 173.5t110 139.5 q16 15 48 41q176 149 181 260h340z" />
<glyph unicode="&#xc0;" horiz-adv-x="1462" d="M565 575h322l-164 508zM530 1473h412l520 -1473h-405l-90 270h-492l-84 -270h-391zM440 1972h287l192 -368h-154z" />
<glyph unicode="&#xc1;" horiz-adv-x="1462" d="M565 575h322l-164 508zM530 1473h412l520 -1473h-405l-90 270h-492l-84 -270h-391zM1050 1972l-325 -368h-154l192 368h287z" />
<glyph unicode="&#xc2;" horiz-adv-x="1462" d="M565 575h322l-164 508zM530 1473h412l520 -1473h-405l-90 270h-492l-84 -270h-391zM423 1604l193 368h256l192 -368h-153l-166 198l-168 -198h-154z" />
<glyph unicode="&#xc3;" horiz-adv-x="1462" d="M565 575h322l-164 508zM530 1473h412l520 -1473h-405l-90 270h-492l-84 -270h-391zM1077 1929q-30 -132 -82.5 -193t-136.5 -61q-22 0 -40.5 2.5t-36.5 8.5l-91 26q-23 6 -40 9t-28 3q-33 0 -54.5 -18.5t-35.5 -58.5h-119q28 125 80.5 185t134.5 60q20 0 42.5 -3.5 t48.5 -10.5l94 -27q12 -4 26 -6t31 -2q33 0 55 22t33 64h119z" />
<glyph unicode="&#xc4;" horiz-adv-x="1462" d="M565 575h322l-164 508zM530 1473h412l520 -1473h-405l-90 270h-492l-84 -270h-391zM800 1653v270h252v-270h-252zM438 1653v270h250v-270h-250z" />
<glyph unicode="&#xc5;" horiz-adv-x="1462" d="M631 1710q0 -45 30.5 -75.5t75.5 -30.5t76 31t31 75t-31.5 75.5t-75.5 31.5t-75 -31t-31 -76zM475 1710q0 111 75 186.5t185 75.5q109 0 185.5 -76.5t76.5 -185.5q0 -110 -76 -186t-186 -76t-185 75.5t-75 186.5zM565 575h322l-164 508zM506 1401h463l493 -1401h-405 l-90 270h-492l-84 -270h-391z" />
<glyph unicode="&#xc6;" horiz-adv-x="2046" d="M854 0v281h-405l-99 -281h-375l603 1473h1359v-299h-741v-265h676v-293h-676v-315h764v-301h-1106zM553 571h301v603h-74z" />
<glyph unicode="&#xc7;" horiz-adv-x="1526" d="M1452 516q-38 -265 -208.5 -411t-440.5 -146q-323 0 -521 211t-198 555q0 358 201.5 571t539.5 213q268 0 437.5 -141t193.5 -385h-354q-26 106 -98.5 159.5t-190.5 53.5q-158 0 -250 -125t-92 -342q0 -216 87 -335.5t245 -119.5q127 0 203.5 62t95.5 180h350zM540 -438 v137q80 -22 149.5 -33.5t121.5 -11.5q43 0 64.5 17.5t21.5 54.5q0 32 -28.5 47.5t-90.5 15.5q-21 0 -33 -0.5t-22 -1.5v213h114v-84h19q111 0 170 -49.5t59 -142.5q0 -100 -66 -154.5t-188 -54.5q-58 0 -130 11.5t-161 35.5z" />
<glyph unicode="&#xc8;" horiz-adv-x="1368" d="M145 0v1473h1119v-302h-742v-260h678v-295h-678v-315h766v-301h-1143zM397 1972h287l192 -368h-154z" />
<glyph unicode="&#xc9;" horiz-adv-x="1368" d="M145 0v1473h1119v-302h-742v-260h678v-295h-678v-315h766v-301h-1143zM1007 1972l-325 -368h-154l192 368h287z" />
<glyph unicode="&#xca;" horiz-adv-x="1368" d="M145 0v1473h1119v-302h-742v-260h678v-295h-678v-315h766v-301h-1143zM380 1604l193 368h256l192 -368h-153l-166 198l-168 -198h-154z" />
<glyph unicode="&#xcb;" horiz-adv-x="1368" d="M145 0v1473h1119v-302h-742v-260h678v-295h-678v-315h766v-301h-1143zM757 1653v270h252v-270h-252zM395 1653v270h250v-270h-250z" />
<glyph unicode="&#xcc;" horiz-adv-x="684" d="M154 0v1473h376v-1473h-376zM37 1972h287l192 -368h-154z" />
<glyph unicode="&#xcd;" horiz-adv-x="684" d="M154 0v1473h376v-1473h-376zM647 1972l-325 -368h-154l192 368h287z" />
<glyph unicode="&#xce;" horiz-adv-x="684" d="M154 0v1473h376v-1473h-376zM20 1604l193 368h256l192 -368h-153l-166 198l-168 -198h-154z" />
<glyph unicode="&#xcf;" horiz-adv-x="684" d="M154 0v1473h376v-1473h-376zM397 1653v270h252v-270h-252zM35 1653v270h250v-270h-250z" />
<glyph unicode="&#xd0;" horiz-adv-x="1546" d="M537 309h204q175 0 256.5 103t81.5 323q0 221 -81 323.5t-257 102.5h-204v-268h270v-217h-270v-367zM158 0v676h-158v217h158v580h628q328 0 502 -190.5t174 -547.5q0 -369 -180.5 -552t-544.5 -183h-579z" />
<glyph unicode="&#xd1;" horiz-adv-x="1567" d="M143 0v1473h408l278 -484q68 -118 129 -234t115 -229q-8 167 -12 313t-4 257v377h364v-1473h-407l-289 498q-51 88 -111 197.5t-127 236.5q11 -144 16 -268t5 -220v-444h-365zM1135 1929q-30 -132 -82.5 -193t-136.5 -61q-22 0 -40.5 2.5t-36.5 8.5l-91 26q-23 6 -40 9 t-28 3q-33 0 -54.5 -18.5t-35.5 -58.5h-119q28 125 80.5 185t134.5 60q20 0 42.5 -3.5t48.5 -10.5l94 -27q12 -4 26 -6t31 -2q33 0 55 22t33 64h119z" />
<glyph unicode="&#xd2;" horiz-adv-x="1645" d="M467 735q0 -225 91.5 -345t262.5 -120q172 0 264.5 120t92.5 345q0 224 -92.5 344.5t-264.5 120.5q-171 0 -262.5 -120t-91.5 -345zM84 735q0 359 198.5 567.5t538.5 208.5q341 0 541.5 -209t200.5 -567t-200.5 -567t-541.5 -209q-340 0 -538.5 208.5t-198.5 567.5z M518 1972h287l192 -368h-154z" />
<glyph unicode="&#xd3;" horiz-adv-x="1645" d="M467 735q0 -225 91.5 -345t262.5 -120q172 0 264.5 120t92.5 345q0 224 -92.5 344.5t-264.5 120.5q-171 0 -262.5 -120t-91.5 -345zM84 735q0 359 198.5 567.5t538.5 208.5q341 0 541.5 -209t200.5 -567t-200.5 -567t-541.5 -209q-340 0 -538.5 208.5t-198.5 567.5z M1128 1972l-325 -368h-154l192 368h287z" />
<glyph unicode="&#xd4;" horiz-adv-x="1645" d="M467 735q0 -225 91.5 -345t262.5 -120q172 0 264.5 120t92.5 345q0 224 -92.5 344.5t-264.5 120.5q-171 0 -262.5 -120t-91.5 -345zM84 735q0 359 198.5 567.5t538.5 208.5q341 0 541.5 -209t200.5 -567t-200.5 -567t-541.5 -209q-340 0 -538.5 208.5t-198.5 567.5z M501 1604l193 368h256l192 -368h-153l-166 198l-168 -198h-154z" />
<glyph unicode="&#xd5;" horiz-adv-x="1645" d="M467 735q0 -225 91.5 -345t262.5 -120q172 0 264.5 120t92.5 345q0 224 -92.5 344.5t-264.5 120.5q-171 0 -262.5 -120t-91.5 -345zM84 735q0 359 198.5 567.5t538.5 208.5q341 0 541.5 -209t200.5 -567t-200.5 -567t-541.5 -209q-340 0 -538.5 208.5t-198.5 567.5z M1155 1929q-30 -132 -82.5 -193t-136.5 -61q-22 0 -40.5 2.5t-36.5 8.5l-91 26q-23 6 -40 9t-28 3q-33 0 -54.5 -18.5t-35.5 -58.5h-119q28 125 80.5 185t134.5 60q20 0 42.5 -3.5t48.5 -10.5l94 -27q12 -4 26 -6t31 -2q33 0 55 22t33 64h119z" />
<glyph unicode="&#xd6;" horiz-adv-x="1645" d="M467 735q0 -225 91.5 -345t262.5 -120q172 0 264.5 120t92.5 345q0 224 -92.5 344.5t-264.5 120.5q-171 0 -262.5 -120t-91.5 -345zM84 735q0 359 198.5 567.5t538.5 208.5q341 0 541.5 -209t200.5 -567t-200.5 -567t-541.5 -209q-340 0 -538.5 208.5t-198.5 567.5z M878 1653v270h252v-270h-252zM516 1653v270h250v-270h-250z" />
<glyph unicode="&#xd7;" horiz-adv-x="1706" d="M430 1214l440 -440l441 440l162 -161l-441 -443l441 -440l-162 -162l-441 441l-440 -441l-162 162l441 440l-441 443z" />
<glyph unicode="&#xd8;" horiz-adv-x="1645" d="M1118 1036l-530 -678q45 -43 105 -65.5t132 -22.5q171 0 262 120.5t91 344.5q0 89 -15 165t-45 136zM516 461l522 669q-46 36 -98.5 53t-114.5 17q-174 0 -266 -119.5t-92 -345.5q0 -83 12.5 -154t36.5 -120zM127 -35l158 201q-102 111 -151.5 251t-49.5 318 q0 360 199.5 568t541.5 208q123 0 228.5 -28t191.5 -84l146 190l98 -76l-148 -190q111 -109 166.5 -256t55.5 -332q0 -357 -200 -566.5t-540 -209.5q-134 0 -246 32t-198 95l-154 -197z" />
<glyph unicode="&#xd9;" horiz-adv-x="1509" d="M135 1473h371v-920q0 -152 57.5 -216.5t190.5 -64.5q131 0 188 64.5t57 216.5v920h375v-875q0 -185 -36 -295t-119 -186q-87 -79 -202.5 -118.5t-260.5 -39.5t-260.5 39.5t-202.5 118.5q-84 77 -121 187.5t-37 293.5v875zM451 1972h287l192 -368h-154z" />
<glyph unicode="&#xda;" horiz-adv-x="1509" d="M135 1473h371v-920q0 -152 57.5 -216.5t190.5 -64.5q131 0 188 64.5t57 216.5v920h375v-875q0 -185 -36 -295t-119 -186q-87 -79 -202.5 -118.5t-260.5 -39.5t-260.5 39.5t-202.5 118.5q-84 77 -121 187.5t-37 293.5v875zM1061 1972l-325 -368h-154l192 368h287z" />
<glyph unicode="&#xdb;" horiz-adv-x="1509" d="M135 1473h371v-920q0 -152 57.5 -216.5t190.5 -64.5q131 0 188 64.5t57 216.5v920h375v-875q0 -185 -36 -295t-119 -186q-87 -79 -202.5 -118.5t-260.5 -39.5t-260.5 39.5t-202.5 118.5q-84 77 -121 187.5t-37 293.5v875zM434 1604l193 368h256l192 -368h-153l-166 198 l-168 -198h-154z" />
<glyph unicode="&#xdc;" horiz-adv-x="1509" d="M135 1473h371v-920q0 -152 57.5 -216.5t190.5 -64.5q131 0 188 64.5t57 216.5v920h375v-875q0 -185 -36 -295t-119 -186q-87 -79 -202.5 -118.5t-260.5 -39.5t-260.5 39.5t-202.5 118.5q-84 77 -121 187.5t-37 293.5v875zM811 1653v270h252v-270h-252zM449 1653v270h250 v-270h-250z" />
<glyph unicode="&#xdd;" horiz-adv-x="1350" d="M489 0v555l-509 918h423l271 -594l270 594h426l-514 -918v-555h-367zM981 1972l-325 -368h-154l192 368h287z" />
<glyph unicode="&#xde;" horiz-adv-x="1432" d="M524 940v-352h250q102 0 150.5 44t48.5 136q0 87 -50.5 129.5t-152.5 42.5h-246zM524 0h-379v1473h379v-236h295q261 0 392.5 -119.5t131.5 -355.5q0 -222 -134.5 -345.5t-377.5 -123.5h-307v-293z" />
<glyph unicode="&#xdf;" horiz-adv-x="1270" d="M125 0v838q0 215 23.5 308t78.5 167q65 86 174 131t254 45q231 0 367.5 -105.5t136.5 -281.5q0 -104 -49 -180.5t-143 -118.5q118 -48 179.5 -148t61.5 -245q0 -213 -120.5 -329t-342.5 -116q-26 0 -59 2.5t-76 8.5l1 315q7 -1 17 -1.5t27 -0.5q93 0 140 41t47 123 t-53 121.5t-162 39.5h-17v283h6q89 0 136 42.5t47 123.5q0 62 -41 100.5t-107 38.5q-98 0 -136 -64.5t-38 -260.5v-877h-352z" />
<glyph unicode="&#xe0;" horiz-adv-x="1194" d="M743 512q-41 -26 -144 -48q-50 -10 -76 -17q-64 -18 -90.5 -46t-26.5 -75q0 -58 36 -93.5t95 -35.5q91 0 148.5 52.5t57.5 137.5v125zM1135 0h-363q-6 26 -10.5 54t-8.5 58q-75 -75 -159.5 -111t-185.5 -36q-157 0 -248.5 86.5t-91.5 233.5q0 135 71.5 219.5t216.5 118.5 q80 18 203 39q184 30 184 88v26q0 47 -35.5 71.5t-105.5 24.5q-76 0 -120.5 -31t-55.5 -91h-328q26 184 152.5 274t359.5 90q145 0 244.5 -35t155.5 -106q39 -51 55 -121.5t16 -226.5v-412q0 -74 13.5 -116.5t40.5 -55.5v-41zM293 1587h287l192 -368h-154z" />
<glyph unicode="&#xe1;" horiz-adv-x="1194" d="M743 512q-41 -26 -144 -48q-50 -10 -76 -17q-64 -18 -90.5 -46t-26.5 -75q0 -58 36 -93.5t95 -35.5q91 0 148.5 52.5t57.5 137.5v125zM1135 0h-363q-6 26 -10.5 54t-8.5 58q-75 -75 -159.5 -111t-185.5 -36q-157 0 -248.5 86.5t-91.5 233.5q0 135 71.5 219.5t216.5 118.5 q80 18 203 39q184 30 184 88v26q0 47 -35.5 71.5t-105.5 24.5q-76 0 -120.5 -31t-55.5 -91h-328q26 184 152.5 274t359.5 90q145 0 244.5 -35t155.5 -106q39 -51 55 -121.5t16 -226.5v-412q0 -74 13.5 -116.5t40.5 -55.5v-41zM903 1587l-325 -368h-154l192 368h287z" />
<glyph unicode="&#xe2;" horiz-adv-x="1194" d="M743 512q-41 -26 -144 -48q-50 -10 -76 -17q-64 -18 -90.5 -46t-26.5 -75q0 -58 36 -93.5t95 -35.5q91 0 148.5 52.5t57.5 137.5v125zM1135 0h-363q-6 26 -10.5 54t-8.5 58q-75 -75 -159.5 -111t-185.5 -36q-157 0 -248.5 86.5t-91.5 233.5q0 135 71.5 219.5t216.5 118.5 q80 18 203 39q184 30 184 88v26q0 47 -35.5 71.5t-105.5 24.5q-76 0 -120.5 -31t-55.5 -91h-328q26 184 152.5 274t359.5 90q145 0 244.5 -35t155.5 -106q39 -51 55 -121.5t16 -226.5v-412q0 -74 13.5 -116.5t40.5 -55.5v-41zM276 1219l193 368h256l192 -368h-153l-166 198 l-168 -198h-154z" />
<glyph unicode="&#xe3;" horiz-adv-x="1194" d="M743 512q-41 -26 -144 -48q-50 -10 -76 -17q-64 -18 -90.5 -46t-26.5 -75q0 -58 36 -93.5t95 -35.5q91 0 148.5 52.5t57.5 137.5v125zM1135 0h-363q-6 26 -10.5 54t-8.5 58q-75 -75 -159.5 -111t-185.5 -36q-157 0 -248.5 86.5t-91.5 233.5q0 135 71.5 219.5t216.5 118.5 q80 18 203 39q184 30 184 88v26q0 47 -35.5 71.5t-105.5 24.5q-76 0 -120.5 -31t-55.5 -91h-328q26 184 152.5 274t359.5 90q145 0 244.5 -35t155.5 -106q39 -51 55 -121.5t16 -226.5v-412q0 -74 13.5 -116.5t40.5 -55.5v-41zM930 1544q-30 -132 -82.5 -193t-136.5 -61 q-22 0 -40.5 2.5t-36.5 8.5l-91 26q-23 6 -40 9t-28 3q-33 0 -54.5 -18.5t-35.5 -58.5h-119q28 125 80.5 185t134.5 60q20 0 42.5 -3.5t48.5 -10.5l94 -27q12 -4 26 -6t31 -2q33 0 55 22t33 64h119z" />
<glyph unicode="&#xe4;" horiz-adv-x="1194" d="M743 512q-41 -26 -144 -48q-50 -10 -76 -17q-64 -18 -90.5 -46t-26.5 -75q0 -58 36 -93.5t95 -35.5q91 0 148.5 52.5t57.5 137.5v125zM1135 0h-363q-6 26 -10.5 54t-8.5 58q-75 -75 -159.5 -111t-185.5 -36q-157 0 -248.5 86.5t-91.5 233.5q0 135 71.5 219.5t216.5 118.5 q80 18 203 39q184 30 184 88v26q0 47 -35.5 71.5t-105.5 24.5q-76 0 -120.5 -31t-55.5 -91h-328q26 184 152.5 274t359.5 90q145 0 244.5 -35t155.5 -106q39 -51 55 -121.5t16 -226.5v-412q0 -74 13.5 -116.5t40.5 -55.5v-41zM653 1268v270h252v-270h-252zM291 1268v270h250 v-270h-250z" />
<glyph unicode="&#xe5;" horiz-adv-x="1194" d="M487 1425q0 -45 30.5 -75.5t76.5 -30.5q44 0 75 31t31 75t-31 75.5t-75 31.5q-45 0 -76 -31t-31 -76zM332 1423q0 111 75.5 187t186.5 76q109 0 185.5 -77t76.5 -186t-76 -184.5t-186 -75.5q-111 0 -186.5 75t-75.5 185zM1135 0h-363q-6 26 -10.5 54t-8.5 58 q-75 -75 -159.5 -111t-185.5 -36q-157 0 -248.5 86.5t-91.5 233.5q0 135 71.5 219.5t216.5 118.5q80 18 203 39q184 30 184 88v26q0 47 -35.5 71.5t-105.5 24.5q-76 0 -120.5 -31t-55.5 -91h-328q26 184 152.5 274t359.5 90q145 0 244.5 -35t155.5 -106q39 -51 55 -121.5 t16 -226.5v-412q0 -74 13.5 -116.5t40.5 -55.5v-41zM743 512q-41 -26 -144 -48q-50 -10 -76 -17q-64 -18 -90.5 -46t-26.5 -75q0 -58 36 -93.5t95 -35.5q91 0 148.5 52.5t57.5 137.5v125z" />
<glyph unicode="&#xe6;" horiz-adv-x="1864" d="M1059 659l403 1q-1 103 -54 161t-146 58q-89 0 -141 -56.5t-62 -163.5zM743 512q-41 -26 -144 -48q-50 -10 -76 -17q-64 -18 -90.5 -46t-26.5 -75q0 -58 36 -93.5t95 -35.5q91 0 148.5 52.5t57.5 137.5v125zM831 160q-119 -105 -218 -150t-205 -45q-157 0 -248.5 86.5 t-91.5 233.5q0 135 72.5 220.5t215.5 119.5q81 19 207 39q180 29 180 79v33q0 49 -36.5 76t-104.5 27q-74 0 -119.5 -33t-56.5 -94h-328q27 185 154 276.5t356 91.5q113 0 194 -26.5t136 -81.5q56 54 134 81t179 27q259 0 406 -158.5t147 -439.5q0 -26 -0.5 -39.5 t-1.5 -23.5h-735q0 -115 49.5 -175.5t145.5 -60.5q71 0 117 30t65 89h344q-48 -180 -189 -278.5t-350 -98.5q-140 0 -244 48.5t-174 146.5z" />
<glyph unicode="&#xe7;" horiz-adv-x="1184" d="M1133 403q-27 -207 -166.5 -322.5t-364.5 -115.5q-243 0 -391 155.5t-148 411.5q0 276 150 435t408 159q224 0 360.5 -112.5t153.5 -311.5h-359q-15 76 -55 114t-103 38q-92 0 -140 -79t-48 -232q0 -150 45.5 -223.5t138.5 -73.5q70 0 111.5 39t56.5 118h351zM366 -438 v137q80 -22 149.5 -33.5t121.5 -11.5q43 0 64.5 17.5t21.5 54.5q0 32 -28.5 47.5t-90.5 15.5q-21 0 -33 -0.5t-22 -1.5v213h114v-84h19q111 0 170 -49.5t59 -142.5q0 -100 -66 -154.5t-188 -54.5q-58 0 -130 11.5t-161 35.5z" />
<glyph unicode="&#xe8;" horiz-adv-x="1223" d="M418 659l405 1q-2 105 -55.5 164t-146.5 59q-88 0 -140.5 -58t-62.5 -166zM805 342h342q-48 -179 -188.5 -277t-348.5 -98q-253 0 -400 153.5t-147 418.5q0 270 148 427.5t399 157.5q259 0 407 -160t148 -442q0 -26 -0.5 -39.5t-1.5 -23.5h-735q0 -115 49.5 -175.5 t145.5 -60.5q71 0 117 30t65 89zM307 1587h287l192 -368h-154z" />
<glyph unicode="&#xe9;" horiz-adv-x="1223" d="M418 659l405 1q-2 105 -55.5 164t-146.5 59q-88 0 -140.5 -58t-62.5 -166zM805 342h342q-48 -179 -188.5 -277t-348.5 -98q-253 0 -400 153.5t-147 418.5q0 270 148 427.5t399 157.5q259 0 407 -160t148 -442q0 -26 -0.5 -39.5t-1.5 -23.5h-735q0 -115 49.5 -175.5 t145.5 -60.5q71 0 117 30t65 89zM917 1587l-325 -368h-154l192 368h287z" />
<glyph unicode="&#xea;" horiz-adv-x="1223" d="M418 659l405 1q-2 105 -55.5 164t-146.5 59q-88 0 -140.5 -58t-62.5 -166zM805 342h342q-48 -179 -188.5 -277t-348.5 -98q-253 0 -400 153.5t-147 418.5q0 270 148 427.5t399 157.5q259 0 407 -160t148 -442q0 -26 -0.5 -39.5t-1.5 -23.5h-735q0 -115 49.5 -175.5 t145.5 -60.5q71 0 117 30t65 89zM290 1219l193 368h256l192 -368h-153l-166 198l-168 -198h-154z" />
<glyph unicode="&#xeb;" horiz-adv-x="1223" d="M418 659l405 1q-2 105 -55.5 164t-146.5 59q-88 0 -140.5 -58t-62.5 -166zM805 342h342q-48 -179 -188.5 -277t-348.5 -98q-253 0 -400 153.5t-147 418.5q0 270 148 427.5t399 157.5q259 0 407 -160t148 -442q0 -26 -0.5 -39.5t-1.5 -23.5h-735q0 -115 49.5 -175.5 t145.5 -60.5q71 0 117 30t65 89zM667 1268v270h252v-270h-252zM305 1268v270h250v-270h-250z" />
<glyph unicode="&#xec;" horiz-adv-x="604" d="M125 0v1087h354v-1087h-354zM-2 1587h287l192 -368h-154z" />
<glyph unicode="&#xed;" horiz-adv-x="604" d="M125 0v1087h354v-1087h-354zM608 1587l-325 -368h-154l192 368h287z" />
<glyph unicode="&#xee;" horiz-adv-x="604" d="M125 0v1087h354v-1087h-354zM-19 1219l193 368h256l192 -368h-153l-166 198l-168 -198h-154z" />
<glyph unicode="&#xef;" horiz-adv-x="604" d="M125 0v1087h354v-1087h-354zM358 1268v270h252v-270h-252zM-4 1268v270h250v-270h-250z" />
<glyph unicode="&#xf0;" horiz-adv-x="1280" d="M731 961q-26 44 -58.5 88.5t-72.5 89.5l-326 -78l-34 133l260 59q-27 33 -56.5 63t-64.5 60l168 150q73 -51 137.5 -103t120.5 -104l280 63l37 -131l-211 -47q151 -149 227 -316.5t76 -348.5q0 -276 -150.5 -427t-424.5 -151q-265 0 -418 145.5t-153 395.5 q0 230 132 364.5t355 134.5q54 0 97 -10t79 -30zM639 764q-101 0 -156 -72.5t-55 -206.5q0 -133 55 -204.5t156 -71.5q102 0 157.5 72t55.5 204q0 133 -56 206t-157 73z" />
<glyph unicode="&#xf1;" horiz-adv-x="1280" d="M125 0v1087h348v-149q56 89 137 132.5t193 43.5q191 0 276.5 -95.5t85.5 -311.5v-707h-356v547q0 192 -32 244.5t-118 52.5q-94 0 -137 -62.5t-43 -199.5v-582h-354zM973 1544q-30 -132 -82.5 -193t-136.5 -61q-22 0 -40.5 2.5t-36.5 8.5l-91 26q-23 6 -40 9t-28 3 q-33 0 -54.5 -18.5t-35.5 -58.5h-119q28 125 80.5 185t134.5 60q20 0 42.5 -3.5t48.5 -10.5l94 -27q12 -4 26 -6t31 -2q33 0 55 22t33 64h119z" />
<glyph unicode="&#xf2;" horiz-adv-x="1280" d="M428 545q0 -149 55 -229t156 -80q102 0 157.5 80.5t55.5 228.5q0 147 -55.5 227t-157.5 80t-156.5 -79.5t-54.5 -227.5zM63 545q0 273 153 427t423 154q271 0 424.5 -154t153.5 -427t-153.5 -427.5t-424.5 -154.5q-272 0 -424 154t-152 428zM336 1587h287l192 -368h-154z " />
<glyph unicode="&#xf3;" horiz-adv-x="1280" d="M428 545q0 -149 55 -229t156 -80q102 0 157.5 80.5t55.5 228.5q0 147 -55.5 227t-157.5 80t-156.5 -79.5t-54.5 -227.5zM63 545q0 273 153 427t423 154q271 0 424.5 -154t153.5 -427t-153.5 -427.5t-424.5 -154.5q-272 0 -424 154t-152 428zM946 1587l-325 -368h-154 l192 368h287z" />
<glyph unicode="&#xf4;" horiz-adv-x="1280" d="M428 545q0 -149 55 -229t156 -80q102 0 157.5 80.5t55.5 228.5q0 147 -55.5 227t-157.5 80t-156.5 -79.5t-54.5 -227.5zM63 545q0 273 153 427t423 154q271 0 424.5 -154t153.5 -427t-153.5 -427.5t-424.5 -154.5q-272 0 -424 154t-152 428zM319 1219l193 368h256 l192 -368h-153l-166 198l-168 -198h-154z" />
<glyph unicode="&#xf5;" horiz-adv-x="1280" d="M428 545q0 -149 55 -229t156 -80q102 0 157.5 80.5t55.5 228.5q0 147 -55.5 227t-157.5 80t-156.5 -79.5t-54.5 -227.5zM63 545q0 273 153 427t423 154q271 0 424.5 -154t153.5 -427t-153.5 -427.5t-424.5 -154.5q-272 0 -424 154t-152 428zM973 1544 q-30 -132 -82.5 -193t-136.5 -61q-22 0 -40.5 2.5t-36.5 8.5l-91 26q-23 6 -40 9t-28 3q-33 0 -54.5 -18.5t-35.5 -58.5h-119q28 125 80.5 185t134.5 60q20 0 42.5 -3.5t48.5 -10.5l94 -27q12 -4 26 -6t31 -2q33 0 55 22t33 64h119z" />
<glyph unicode="&#xf6;" horiz-adv-x="1280" d="M428 545q0 -149 55 -229t156 -80q102 0 157.5 80.5t55.5 228.5q0 147 -55.5 227t-157.5 80t-156.5 -79.5t-54.5 -227.5zM63 545q0 273 153 427t423 154q271 0 424.5 -154t153.5 -427t-153.5 -427.5t-424.5 -154.5q-272 0 -424 154t-152 428zM696 1268v270h252v-270h-252z M334 1268v270h250v-270h-250z" />
<glyph unicode="&#xf7;" horiz-adv-x="1706" d="M854 371q68 0 116 -48.5t48 -117.5q0 -68 -47.5 -116t-116.5 -48t-117.5 48t-48.5 116t49 117t117 49zM254 727h1198v-231h-1198v231zM854 1182q67 0 115.5 -49t48.5 -117t-48.5 -116t-117.5 -48t-116.5 48t-47.5 116t49 117t117 49z" />
<glyph unicode="&#xf8;" horiz-adv-x="1280" d="M113 -63l-72 75l141 150q-58 71 -87 168t-29 219q0 272 152.5 424.5t422.5 152.5q112 0 203 -26.5t166 -81.5l153 162l76 -76l-154 -160q66 -80 97.5 -179t31.5 -220q0 -274 -151.5 -428t-423.5 -154q-122 0 -215.5 29t-169.5 90zM848 672l-367 -371q29 -38 70.5 -57 t95.5 -19q100 0 158.5 83.5t58.5 228.5q0 31 -4 64.5t-12 70.5zM430 414l373 366q-31 41 -72.5 61.5t-91.5 20.5q-108 0 -165.5 -83.5t-57.5 -241.5q0 -34 3.5 -64.5t10.5 -58.5z" />
<glyph unicode="&#xf9;" horiz-adv-x="1280" d="M1157 1087v-1087h-348v150q-64 -91 -144.5 -134t-185.5 -43q-180 0 -271 92.5t-91 274.5v747h356v-608q0 -134 33.5 -184.5t116.5 -50.5q93 0 135.5 61.5t42.5 200.5v581h356zM336 1587h287l192 -368h-154z" />
<glyph unicode="&#xfa;" horiz-adv-x="1280" d="M1157 1087v-1087h-348v150q-64 -91 -144.5 -134t-185.5 -43q-180 0 -271 92.5t-91 274.5v747h356v-608q0 -134 33.5 -184.5t116.5 -50.5q93 0 135.5 61.5t42.5 200.5v581h356zM946 1587l-325 -368h-154l192 368h287z" />
<glyph unicode="&#xfb;" horiz-adv-x="1280" d="M1157 1087v-1087h-348v150q-64 -91 -144.5 -134t-185.5 -43q-180 0 -271 92.5t-91 274.5v747h356v-608q0 -134 33.5 -184.5t116.5 -50.5q93 0 135.5 61.5t42.5 200.5v581h356zM319 1219l193 368h256l192 -368h-153l-166 198l-168 -198h-154z" />
<glyph unicode="&#xfc;" horiz-adv-x="1280" d="M1157 1087v-1087h-348v150q-64 -91 -144.5 -134t-185.5 -43q-180 0 -271 92.5t-91 274.5v747h356v-608q0 -134 33.5 -184.5t116.5 -50.5q93 0 135.5 61.5t42.5 200.5v581h356zM696 1268v270h252v-270h-252zM334 1268v270h250v-270h-250z" />
<glyph unicode="&#xfd;" horiz-adv-x="1151" d="M725 -121q-55 -152 -94 -211t-90 -82q-38 -16 -92.5 -23t-192.5 -7h-94v282h69q99 0 135.5 25t36.5 86q0 41 -49 167l-4 9l-366 962h383l204 -741l209 741h379zM880 1587l-325 -368h-154l192 368h287z" />
<glyph unicode="&#xfe;" horiz-adv-x="1327" d="M483 135v-571h-354v1909h356v-531q60 89 138.5 131.5t183.5 42.5q204 0 331.5 -157.5t127.5 -411.5q0 -257 -128 -419.5t-327 -162.5q-107 0 -190.5 43.5t-137.5 126.5zM686 831q-102 0 -154.5 -76t-52.5 -225q0 -136 56 -210t157 -74q95 0 150 76.5t55 207.5 q0 147 -54.5 224t-156.5 77z" />
<glyph unicode="&#xff;" horiz-adv-x="1151" d="M725 -121q-55 -152 -94 -211t-90 -82q-38 -16 -92.5 -23t-192.5 -7h-94v282h69q99 0 135.5 25t36.5 86q0 41 -49 167l-4 9l-366 962h383l204 -741l209 741h379zM630 1268v270h252v-270h-252zM268 1268v270h250v-270h-250z" />
<glyph unicode="&#x106;" horiz-adv-x="1526" d="M1452 516q-38 -265 -208.5 -411t-440.5 -146q-323 0 -521 211t-198 555q0 358 201.5 571t539.5 213q268 0 437.5 -141t193.5 -385h-354q-26 106 -98.5 159.5t-190.5 53.5q-158 0 -250 -125t-92 -342q0 -216 87 -335.5t245 -119.5q127 0 203.5 62t95.5 180h350zM1124 1972 l-325 -368h-154l192 368h287z" />
<glyph unicode="&#x107;" horiz-adv-x="1184" d="M1133 403q-27 -207 -166.5 -322.5t-364.5 -115.5q-243 0 -391 155.5t-148 411.5q0 276 150 435t408 159q224 0 360.5 -112.5t153.5 -311.5h-359q-15 76 -55 114t-103 38q-92 0 -140 -79t-48 -232q0 -150 45.5 -223.5t138.5 -73.5q70 0 111.5 39t56.5 118h351zM911 1587 l-325 -368h-154l192 368h287z" />
<glyph unicode="&#x10c;" horiz-adv-x="1526" d="M1452 516q-38 -265 -208.5 -411t-440.5 -146q-323 0 -521 211t-198 555q0 358 201.5 571t539.5 213q268 0 437.5 -141t193.5 -385h-354q-26 106 -98.5 159.5t-190.5 53.5q-158 0 -250 -125t-92 -342q0 -216 87 -335.5t245 -119.5q127 0 203.5 62t95.5 180h350zM497 1972 h154l168 -198l166 198h153l-192 -368h-256z" />
<glyph unicode="&#x10d;" horiz-adv-x="1184" d="M1133 403q-27 -207 -166.5 -322.5t-364.5 -115.5q-243 0 -391 155.5t-148 411.5q0 276 150 435t408 159q224 0 360.5 -112.5t153.5 -311.5h-359q-15 76 -55 114t-103 38q-92 0 -140 -79t-48 -232q0 -150 45.5 -223.5t138.5 -73.5q70 0 111.5 39t56.5 118h351zM284 1587 h154l168 -198l166 198h153l-192 -368h-256z" />
<glyph unicode="&#x111;" horiz-adv-x="1327" d="M1204 1473v-103h133v-182h-133v-1190h-356v145q-62 -90 -139.5 -132t-182.5 -42q-203 0 -330.5 158t-127.5 412q0 257 127.5 419t326.5 162q107 0 190.5 -43t137.5 -127v238h-326v182h326v103h354zM436 555q0 -146 54.5 -223.5t156.5 -77.5t154.5 76.5t52.5 224.5 q0 137 -55 212t-156 75q-95 0 -151 -77t-56 -210z" />
<glyph unicode="&#x11e;" horiz-adv-x="1618" d="M1253 0l-30 190q-83 -116 -197.5 -172.5t-267.5 -56.5q-143 0 -264.5 52t-214.5 153q-97 104 -147 245t-50 308q0 361 206.5 579t549.5 218q259 0 427.5 -130t213.5 -364h-361q-36 95 -110 143.5t-181 48.5q-162 0 -262 -132t-100 -349q0 -214 98.5 -340.5t263.5 -126.5 q132 0 218.5 67t107.5 187h-328v283h664v-803h-236zM494 1939h131q6 -70 50.5 -103.5t133.5 -33.5q90 0 134.5 33.5t47.5 103.5h131q-12 -159 -87.5 -233t-225.5 -74t-227.5 75.5t-87.5 231.5z" />
<glyph unicode="&#x11f;" horiz-adv-x="1325" d="M127 -92h356q14 -49 54.5 -72.5t109.5 -23.5q115 0 162 51.5t47 185.5v115q-58 -88 -141.5 -131t-194.5 -43q-200 0 -327 154.5t-127 402.5q0 254 127 411.5t331 157.5q113 0 196 -42t148 -132v145h334v-897q0 -203 -15 -285.5t-50 -137.5q-64 -101 -186.5 -153 t-293.5 -52q-247 0 -376.5 84.5t-153.5 261.5zM434 549q0 -130 55 -204.5t150 -74.5q101 0 157 73.5t56 205.5q0 143 -52.5 217t-154.5 74t-156.5 -75t-54.5 -216zM349 1554h131q6 -70 50.5 -103.5t133.5 -33.5q90 0 134.5 33.5t47.5 103.5h131q-12 -159 -87.5 -233 t-225.5 -74t-227.5 75.5t-87.5 231.5z" />
<glyph unicode="&#x130;" horiz-adv-x="684" d="M154 0v1473h376v-1473h-376zM213 1649v278h260v-278h-260z" />
<glyph unicode="&#x131;" horiz-adv-x="604" d="M125 0v1087h354v-1087h-354z" />
<glyph unicode="&#x141;" horiz-adv-x="1260" d="M156 0v510l-107 -74l-125 178l232 164v695h381v-474l337 238l127 -180l-464 -324v-414h710v-319h-1091z" />
<glyph unicode="&#x142;" horiz-adv-x="623" d="M133 0v522l-82 -55l-108 156l190 133v717h356v-496l82 57l109 -155l-191 -134v-745h-356z" />
<glyph unicode="&#x152;" horiz-adv-x="2322" d="M1120 102q-73 -71 -163 -105t-207 -34q-290 0 -472 215.5t-182 564.5q0 338 184 550t474 212q117 0 204 -32t162 -103v103h1098v-302h-741v-260h677v-295h-677v-315h766v-301h-1123v102zM1100 414v647q-67 74 -132 107.5t-143 33.5q-175 0 -266.5 -119t-91.5 -348 q0 -225 92.5 -346t263.5 -121q81 0 150.5 36.5t126.5 109.5z" />
<glyph unicode="&#x153;" horiz-adv-x="1985" d="M1016 96q-74 -65 -173.5 -98t-219.5 -33q-259 0 -409.5 156t-150.5 424q0 273 152.5 426t423.5 153q115 0 210.5 -33t168.5 -98q75 66 163 98.5t191 32.5q259 0 406 -160t147 -442q0 -25 -0.5 -38.5t-1.5 -24.5h-735q0 -115 49 -173.5t145 -58.5q74 0 119.5 29t63.5 86 h344q-47 -175 -186.5 -276t-336.5 -101q-120 0 -213.5 33t-156.5 98zM428 545q0 -150 55 -232t156 -82t157 82.5t56 231.5q0 147 -55.5 227t-157.5 80t-156.5 -79.5t-54.5 -227.5zM1180 659l403 1q-2 105 -55 164t-146 59q-87 0 -139.5 -58t-62.5 -166z" />
<glyph unicode="&#x15e;" horiz-adv-x="1397" d="M74 489h362q4 -126 74 -189.5t205 -63.5q115 0 178 38t63 107q0 35 -15 62.5t-42 41.5q-41 22 -201 69t-270 91q-159 63 -241.5 166.5t-82.5 241.5q0 211 158.5 335.5t429.5 124.5q266 0 422 -131t156 -354h-355q-12 103 -72.5 152t-174.5 49q-91 0 -148 -37.5t-57 -95.5 q0 -98 271 -185q49 -16 75 -24l15 -5q280 -91 350 -147q71 -58 108 -136.5t37 -174.5q0 -220 -168.5 -342.5t-472.5 -122.5q-287 0 -437 131.5t-167 398.5zM458 -438v137q80 -22 149.5 -33.5t121.5 -11.5q43 0 64.5 17.5t21.5 54.5q0 32 -28.5 47.5t-90.5 15.5 q-21 0 -33 -0.5t-22 -1.5v213h114v-84h19q111 0 170 -49.5t59 -142.5q0 -100 -66 -154.5t-188 -54.5q-58 0 -130 11.5t-161 35.5z" />
<glyph unicode="&#x15f;" horiz-adv-x="1202" d="M74 332h356q6 -72 53.5 -108t137.5 -36q75 0 118 29t43 78q0 63 -168 106q-90 23 -145 41q-204 67 -279 139.5t-75 190.5q0 165 126 259.5t347 94.5q236 0 364 -80.5t144 -240.5h-342q-11 55 -50 81.5t-108 26.5q-64 0 -98.5 -24.5t-34.5 -69.5q0 -64 174 -111 q42 -11 65 -18q162 -47 225 -70.5t91 -44.5q59 -43 87 -100t28 -133q0 -177 -138 -277t-385 -100q-242 0 -382 96t-154 271zM362 -438v137q80 -22 149.5 -33.5t121.5 -11.5q43 0 64.5 17.5t21.5 54.5q0 32 -28.5 47.5t-90.5 15.5q-21 0 -33 -0.5t-22 -1.5v213h114v-84h19 q111 0 170 -49.5t59 -142.5q0 -100 -66 -154.5t-188 -54.5q-58 0 -130 11.5t-161 35.5z" />
<glyph unicode="&#x160;" horiz-adv-x="1397" d="M74 489h362q4 -126 74 -189.5t205 -63.5q115 0 178 38t63 107q0 35 -15 62.5t-42 41.5q-41 22 -201 69t-270 91q-159 63 -241.5 166.5t-82.5 241.5q0 211 158.5 335.5t429.5 124.5q266 0 422 -131t156 -354h-355q-12 103 -72.5 152t-174.5 49q-91 0 -148 -37.5t-57 -95.5 q0 -98 271 -185q49 -16 75 -24l15 -5q280 -91 350 -147q71 -58 108 -136.5t37 -174.5q0 -220 -168.5 -342.5t-472.5 -122.5q-287 0 -437 131.5t-167 398.5zM376 1972h154l168 -198l166 198h153l-192 -368h-256z" />
<glyph unicode="&#x161;" horiz-adv-x="1202" d="M74 332h356q6 -72 53.5 -108t137.5 -36q75 0 118 29t43 78q0 63 -168 106q-90 23 -145 41q-204 67 -279 139.5t-75 190.5q0 165 126 259.5t347 94.5q236 0 364 -80.5t144 -240.5h-342q-11 55 -50 81.5t-108 26.5q-64 0 -98.5 -24.5t-34.5 -69.5q0 -64 174 -111 q42 -11 65 -18q162 -47 225 -70.5t91 -44.5q59 -43 87 -100t28 -133q0 -177 -138 -277t-385 -100q-242 0 -382 96t-154 271zM280 1587h154l168 -198l166 198h153l-192 -368h-256z" />
<glyph unicode="&#x178;" horiz-adv-x="1350" d="M489 0v555l-509 918h423l271 -594l270 594h426l-514 -918v-555h-367zM731 1653v270h252v-270h-252zM369 1653v270h250v-270h-250z" />
<glyph unicode="&#x17d;" horiz-adv-x="1331" d="M61 0v295l752 881h-723v297h1190v-297l-752 -881h752v-295h-1219zM344 1972h154l168 -198l166 198h153l-192 -368h-256z" />
<glyph unicode="&#x17e;" horiz-adv-x="1081" d="M39 0v262l541 569h-506v256h950v-256l-537 -569h555v-262h-1003zM219 1587h154l168 -198l166 198h153l-192 -368h-256z" />
<glyph unicode="&#x192;" horiz-adv-x="1208" d="M-43 -393l49 231q27 -8 50 -12t44 -4q97 0 156 286l2 9l131 628h-217v232h270q51 302 150 416t299 114q54 0 105.5 -8t99.5 -24l-54 -240q-40 11 -58.5 14.5t-33.5 3.5q-59 0 -89 -50.5t-58 -225.5h227v-232h-278l-134 -610q-47 -223 -76 -304.5t-67 -131.5 q-50 -64 -128 -96.5t-181 -32.5q-60 0 -112 9t-97 28z" />
<glyph unicode="&#x2c6;" d="M190 1219l193 368h256l192 -368h-153l-166 198l-168 -198h-154z" />
<glyph unicode="&#x2c7;" d="M190 1587h154l168 -198l166 198h153l-192 -368h-256z" />
<glyph unicode="&#x2d8;" d="M197 1554h131q6 -70 50.5 -103.5t133.5 -33.5q90 0 134.5 33.5t47.5 103.5h131q-12 -159 -87.5 -233t-225.5 -74t-227.5 75.5t-87.5 231.5z" />
<glyph unicode="&#x2d9;" d="M383 1264v278h260v-278h-260z" />
<glyph unicode="&#x2da;" d="M397 1470q0 -48 33 -81t82 -33q48 0 81.5 33.5t33.5 80.5q0 48 -33.5 81.5t-81.5 33.5t-81.5 -33.5t-33.5 -81.5zM242 1470q0 114 78 192.5t192 78.5t193 -78.5t79 -192.5q0 -113 -79 -192.5t-193 -79.5t-192 78.5t-78 193.5z" />
<glyph unicode="&#x2db;" d="M633 0q-63 -58 -91 -104.5t-28 -92.5q0 -41 18.5 -60t57.5 -19h102v-191h-74q-156 0 -221 45.5t-65 151.5q0 76 46.5 141t145.5 129h109z" />
<glyph unicode="&#x2dc;" d="M844 1544q-30 -132 -82.5 -193t-136.5 -61q-22 0 -40.5 2.5t-36.5 8.5l-91 26q-23 6 -40 9t-28 3q-33 0 -54.5 -18.5t-35.5 -58.5h-119q28 125 80.5 185t134.5 60q20 0 42.5 -3.5t48.5 -10.5l94 -27q12 -4 26 -6t31 -2q33 0 55 22t33 64h119z" />
<glyph unicode="&#x2dd;" d="M569 1219l156 368h254l-291 -368h-119zM397 1587h246l-252 -368h-110z" />
<glyph unicode="&#x3a9;" horiz-adv-x="1645" d="M1266 307h333v-307h-636v352q92 82 142 196.5t50 246.5q0 182 -90 288.5t-244 106.5q-153 0 -243.5 -107.5t-90.5 -289.5q0 -132 50 -246.5t143 -194.5v-352h-635v307h332q-132 95 -200 229.5t-68 299.5q0 303 195.5 489t516.5 186q323 0 518 -185t195 -490 q0 -165 -68 -299.5t-200 -229.5z" />
<glyph unicode="&#x3c0;" horiz-adv-x="1530" d="M1538 1090l-39 -232h-178l-135 -858h-357l134 858h-232l-135 -858h-354l133 858h-27q-42 0 -70.5 -35.5t-36.5 -97.5h-235q33 209 124.5 287t311.5 78h1096z" />
<glyph unicode="&#x2013;" d="M0 422v244h1024v-244h-1024z" />
<glyph unicode="&#x2014;" horiz-adv-x="2048" d="M0 666h2048v-244h-2048v244z" />
<glyph unicode="&#x2018;" horiz-adv-x="557" d="M461 1169v-352h-371v256q0 200 94 309t283 129v-122q-104 -27 -152.5 -77.5t-48.5 -131.5v-11h195z" />
<glyph unicode="&#x2019;" horiz-adv-x="557" d="M96 1118v355h371v-259q0 -199 -94 -308.5t-283 -129.5v123q102 25 150.5 76t48.5 133v10h-193z" />
<glyph unicode="&#x201a;" horiz-adv-x="557" d="M96 0v352h371v-256q0 -199 -94 -308.5t-283 -129.5v123q102 25 150.5 75.5t48.5 133.5v10h-193z" />
<glyph unicode="&#x201c;" horiz-adv-x="1081" d="M985 1169v-352h-371v256q0 200 94 309t283 129v-122q-104 -27 -152 -77.5t-48 -131.5v-11h194zM461 1169v-352h-371v256q0 200 94 309t283 129v-122q-104 -27 -152.5 -77.5t-48.5 -131.5v-11h195z" />
<glyph unicode="&#x201d;" horiz-adv-x="1081" d="M621 1118v355h370v-259q0 -199 -94 -308.5t-283 -129.5v123q102 25 150.5 76t48.5 133v10h-192zM96 1118v355h371v-259q0 -199 -94 -308.5t-283 -129.5v123q102 25 150.5 76t48.5 133v10h-193z" />
<glyph unicode="&#x201e;" horiz-adv-x="1081" d="M621 0v352h370v-256q0 -199 -94 -308.5t-283 -129.5v123q102 25 150.5 75.5t48.5 133.5v10h-192zM96 0v352h371v-256q0 -199 -94 -308.5t-283 -129.5v123q102 25 150.5 75.5t48.5 133.5v10h-193z" />
<glyph unicode="&#x2020;" d="M367 -217v1051h-322v227h322v412h288v-412h324v-227h-324v-1051h-288z" />
<glyph unicode="&#x2021;" d="M367 -217v360h-322v228h322v514h-322v227h322v361h288v-361h324v-227h-324v-514h324v-228h-324v-360h-288z" />
<glyph unicode="&#x2022;" horiz-adv-x="1208" d="M307 762q0 123 87 209t210 86q122 0 208.5 -86.5t86.5 -208.5t-87.5 -209.5t-209.5 -87.5q-123 0 -209 87t-86 210z" />
<glyph unicode="&#x2026;" horiz-adv-x="2048" d="M156 0v352h370v-352h-370zM838 0v352h370v-352h-370zM1522 0v352h370v-352h-370z" />
<glyph unicode="&#x2030;" horiz-adv-x="2826" d="M2202 367q0 -68 48 -115t115 -47q68 0 115 47t47 115t-47 115.5t-115 47.5t-115.5 -47.5t-47.5 -115.5zM1958 367q0 169 119 288t288 119q170 0 289 -119t119 -288q0 -170 -119 -289t-289 -119q-169 0 -288 119t-119 289zM1280 367q0 -68 48 -115t116 -47q67 0 114.5 47 t47.5 115t-47.5 115.5t-114.5 47.5q-69 0 -116.5 -47.5t-47.5 -115.5zM1036 367q0 169 119 288t289 119t288.5 -119t118.5 -288q0 -170 -118.5 -289t-288.5 -119t-289 119t-119 289zM442 -41l844 1493h180l-843 -1493h-181zM301 1044q0 -67 48 -114t116 -47q67 0 114.5 47 t47.5 114q0 68 -47.5 116t-114.5 48q-69 0 -116.5 -47.5t-47.5 -116.5zM57 1044q0 170 119 289t289 119t288.5 -119t118.5 -289q0 -169 -118.5 -288t-288.5 -119t-289 119t-119 288z" />
<glyph unicode="&#x2039;" horiz-adv-x="522" d="M446 160l-376 237v299l376 234v-258l-206 -127l206 -127v-258z" />
<glyph unicode="&#x203a;" horiz-adv-x="522" d="M76 930l377 -240v-297l-377 -233v258l207 127l-207 125v260z" />
<glyph unicode="&#x20a3;" horiz-adv-x="2114" d="M147 0v1473h1057v-306h-682v-305h592v-305h-592v-557h-375zM1374 0v1087h342v-190q57 112 142 163.5t216 53.5v-352q-23 3 -45.5 4.5t-42.5 1.5q-82 0 -135.5 -24.5t-85.5 -75.5q-20 -34 -28.5 -97.5t-8.5 -205.5v-365h-354z" />
<glyph unicode="&#x20ac;" horiz-adv-x="1208" d="M934 915l-43 -131h-375q-1 -13 -1.5 -29t-0.5 -48v-54h332l-43 -131h-281q8 -156 50.5 -225.5t127.5 -69.5q77 0 122 48.5t55 140.5h331q-36 -224 -169.5 -339.5t-352.5 -115.5q-220 0 -353.5 143.5t-168.5 417.5h-176l45 131h119v54q0 32 0.5 48.5t0.5 28.5h-155l43 131 h125q36 269 171.5 403t371.5 134q210 0 342 -113.5t163 -322.5h-337q-13 86 -54 127t-114 41q-82 0 -127.5 -66.5t-57.5 -202.5h410z" />
<glyph unicode="&#x2122;" horiz-adv-x="1706" d="M797 1464h223l113 -303l114 303h221v-551h-155v390l-146 -390h-65l-150 390v-390h-155v551zM188 1464h502v-127h-164v-424h-174v424h-164v127z" />
<glyph unicode="&#x2202;" horiz-adv-x="1114" d="M766 684q21 113 32 206t11 150q0 87 -29.5 148t-68.5 61q-35 0 -132 -93t-180 -93q-48 0 -80 33.5t-32 83.5q0 69 93 125.5t220 56.5q210 0 332.5 -161t122.5 -441q0 -344 -162.5 -564.5t-417.5 -220.5q-182 0 -299 116.5t-117 299.5q0 203 119.5 336t298.5 133 q101 0 170.5 -42.5t118.5 -133.5zM698 532q0 114 -36.5 176t-104.5 62q-96 0 -160.5 -136.5t-64.5 -346.5q0 -116 36.5 -176t106.5 -60q97 0 160 135.5t63 345.5z" />
<glyph unicode="&#x2206;" horiz-adv-x="1468" d="M733 1059l-262 -774h526zM537 1473h395l541 -1473h-1475z" />
<glyph unicode="&#x220f;" horiz-adv-x="1645" d="M145 1473h1348v-1866h-399v1532h-549v-1532h-400v1866z" />
<glyph unicode="&#x2211;" horiz-adv-x="1520" d="M72 1473h1335v-302h-838l596 -608l-587 -651h895v-305h-1424v184l684 756l-661 665v261z" />
<glyph unicode="&#x2212;" horiz-adv-x="1706" d="M254 729h1198v-235h-1198v235z" />
<glyph unicode="&#x2215;" horiz-adv-x="342" d="M-342 0l848 1452h182l-848 -1452h-182z" />
<glyph unicode="&#x2219;" horiz-adv-x="604" d="M117 707q0 78 53 132t131 54t132 -54t54 -132q0 -79 -54 -133t-132 -54t-131 54t-53 133z" />
<glyph unicode="&#x221a;" horiz-adv-x="1366" d="M1155 1714h215v-149h-96l-590 -1606h-119l-307 846l-145 -55l-37 129l360 127l223 -635z" />
<glyph unicode="&#x221e;" horiz-adv-x="1706" d="M956 561q43 -67 102 -101t132 -34q90 0 146.5 50.5t56.5 129.5q0 77 -51.5 127.5t-127.5 50.5q-72 0 -131.5 -50.5t-126.5 -172.5zM752 657q-43 67 -101 100.5t-133 33.5q-90 0 -146.5 -50t-56.5 -129q0 -77 51 -127.5t128 -50.5q71 0 132 52.5t126 170.5zM856 442 q-68 -130 -147.5 -193t-176.5 -63q-139 0 -238 121.5t-99 300.5q0 188 87.5 305t227.5 117q90 0 166.5 -56.5t175.5 -199.5q71 132 150 195t174 63q140 0 238.5 -121t98.5 -301q0 -189 -87.5 -306.5t-227.5 -117.5q-91 0 -166 55t-176 201z" />
<glyph unicode="&#x222b;" horiz-adv-x="1249" d="M362 -248q99 0 119 667q3 101 4 154q17 523 130.5 753t349.5 230q105 0 170 -53t65 -137q0 -64 -41 -103.5t-106 -39.5q-64 0 -96.5 38.5t-32.5 112.5q0 38 -7.5 49t-25.5 11q-101 0 -124 -667q-2 -60 -3 -91q-11 -329 -30.5 -472.5t-57.5 -244.5q-62 -166 -159.5 -249 t-229.5 -83q-107 0 -171.5 52t-64.5 139q0 65 42 104t112 39q60 0 92.5 -36t32.5 -103q0 -12 -2 -24v-3q0 -24 8 -33.5t26 -9.5z" />
<glyph unicode="&#x2248;" horiz-adv-x="1706" d="M1530 602v-254q-105 -71 -196 -104t-181 -33t-283 65.5t-309 65.5q-82 0 -172.5 -37t-210.5 -121v254q111 74 209 109t195 35q115 0 304.5 -65.5t272.5 -65.5t170 35t201 116zM1530 1036v-254q-107 -70 -197 -102.5t-178 -32.5q-91 0 -284 64.5t-310 64.5q-84 0 -172 -36 t-211 -122v256q112 74 209 108t195 34q115 0 304.5 -65.5t272.5 -65.5t170.5 35.5t200.5 115.5z" />
<glyph unicode="&#x2260;" horiz-adv-x="1706" d="M1194 1251l168 -137l-135 -168h225v-221h-377l-180 -227h557v-222h-704l-246 -307l-170 137l135 170h-213v222h360l183 227h-543v221h694z" />
<glyph unicode="&#x2264;" horiz-adv-x="1706" d="M256 213h1196v-229h-1196v229zM1450 1257v-239l-776 -240l776 -239v-240l-1194 379v201z" />
<glyph unicode="&#x2265;" horiz-adv-x="1706" d="M256 213h1196v-229h-1196v229zM258 1257l1192 -378v-201l-1192 -379v240l776 239l-776 240v239z" />
<glyph unicode="&#x25ca;" horiz-adv-x="1012" d="M506 1409l-385 -817l385 -825l385 825zM506 1653l500 -1061l-500 -1069l-500 1069z" />
<glyph unicode="&#xe000;" horiz-adv-x="1085" d="M0 1085h1085v-1085h-1085v1085z" />
<glyph unicode="&#xf000;" horiz-adv-x="1618" d="M836 1216q-1 6 -1.5 14t-0.5 23q0 124 95 229.5t236 131.5q1 -10 1.5 -23t0.5 -39q0 -131 -103.5 -234.5t-203.5 -103.5h-8q-3 0 -7.5 1t-8.5 1zM1505 403q-114 -247 -205 -342.5t-204 -95.5q-50 0 -131.5 33t-122.5 33q-45 0 -131 -33t-127 -33q-64 0 -128.5 44 t-129.5 132q-102 140 -157.5 295.5t-55.5 300.5q0 219 125 356.5t323 137.5q68 0 155 -34t124 -34q34 0 121.5 35t152.5 35q110 0 198 -40t161 -124q-102 -65 -151.5 -145.5t-49.5 -182.5q0 -113 60 -200t173 -138z" />
<glyph unicode="&#xf001;" horiz-adv-x="1337" d="M860 1186v287h357v-287h-357zM860 0v1087h357v-1087h-357zM180 0v866h-155v221l155 1q-1 11 -1.5 23.5t-0.5 37.5q0 181 94.5 259.5t315.5 78.5q49 0 75 -1t49 -3v-242q-8 1 -19 1.5t-29 0.5q-74 0 -101.5 -26.5t-27.5 -96.5q0 -5 1 -15.5t1 -17.5h176v-221h-176v-866 h-357z" />
<glyph unicode="&#xf002;" horiz-adv-x="1337" d="M860 0v1473h357v-1473h-357zM180 0v866h-155v221l155 1q-1 11 -1.5 23.5t-0.5 37.5q0 181 94.5 259.5t315.5 78.5q49 0 75 -1t49 -3v-242q-8 1 -19 1.5t-29 0.5q-74 0 -101.5 -26.5t-27.5 -96.5q0 -5 1 -15.5t1 -17.5h176v-221h-176v-866h-357z" />
</font>
</defs>
</svg>
